<?xml version="1.0" standalone="no"?>
<!DOCTYPE svg PUBLIC "-//W3C//DTD SVG 1.1//EN" "http://www.w3.org/Graphics/SVG/1.1/DTD/svg11.dtd" >
<svg xmlns="http://www.w3.org/2000/svg" xmlns:xlink="http://www.w3.org/1999/xlink" version="1.1">
<metadata>
Created by FontForge 20190801 at Mon Apr 30 14:31:53 2007
 By Jimmy Wärting
Copyright 1990-1993 as an unpublished work by Bitstream Inc.  All rights reserved.  Confidential.
</metadata>
<defs>
<font id="CharterITCbyBT-Black" horiz-adv-x="500" >
  <font-face 
    font-family="ITC Charter"
    font-weight="900"
    font-stretch="normal"
    units-per-em="1000"
    panose-1="0 0 0 0 0 0 0 0 0 0"
    ascent="800"
    descent="-200"
    x-height="491"
    cap-height="671"
    bbox="-162 -236 1382 963"
    underline-thickness="120"
    underline-position="-170"
    stemh="62"
    stemv="164"
    unicode-range="U+0020-FB02"
  />
<missing-glyph horiz-adv-x="322" 
 />
    <glyph glyph-name=".notdef" horiz-adv-x="322" 
 />
    <glyph glyph-name="space" unicode=" " horiz-adv-x="322" 
 />
    <glyph glyph-name="exclam" unicode="!" horiz-adv-x="343" 
d="M263 557l-65 -333h-57l-65 329c-5 25 -7 41 -7 48c0 51 39 86 100 86s100 -36 100 -86c0 -9 -2 -24 -6 -44zM168 184c53 0 96 -43 96 -96c0 -52 -44 -94 -96 -94c-51 0 -94 41 -94 94c0 54 42 96 94 96z" />
    <glyph glyph-name="quotedbl" unicode="&#x22;" horiz-adv-x="350" 
d="M101 413h-21l-42 226c-1 6 -2 12 -2 18c0 36 21 58 54 58s55 -22 55 -57c0 -6 -1 -13 -2 -19zM270 413h-22l-41 226c-1 6 -2 12 -2 18c0 36 21 58 54 58s54 -22 54 -57c0 -6 0 -13 -1 -19z" />
    <glyph glyph-name="numbersign" unicode="#" horiz-adv-x="769" 
d="M353 710l80 -18l-73 -206h121l75 224l80 -18l-73 -206h134v-76h-159l-42 -123h159v-76h-185l-77 -234l-81 16l72 218h-114l-81 -234l-79 16l75 218h-135v76h161l39 123h-150v76h177zM294 287h117l42 123h-119z" />
    <glyph glyph-name="dollar" unicode="$" horiz-adv-x="644" 
d="M294 741h65v-74c63 -4 127 -14 190 -33v-176h-86l-19 118c-28 11 -56 18 -85 20v-182c155 -39 230 -101 230 -200c0 -114 -86 -197 -237 -212v-104h-67v105c-75 2 -148 13 -218 34v177h88l20 -115c33 -16 70 -25 110 -27v194c-150 43 -219 99 -219 205
c0 109 81 182 228 195v75zM294 594c-48 -7 -76 -37 -76 -79c0 -45 24 -71 76 -85v164zM352 253v-176c49 5 82 40 82 90c0 45 -28 74 -82 86z" />
    <glyph glyph-name="percent" unicode="%" horiz-adv-x="972" 
d="M232 683c116 0 190 -80 190 -209c0 -131 -73 -210 -190 -210c-116 0 -189 79 -189 210c0 130 74 209 189 209zM660 671h81l-428 -671h-80zM228 630c-41 0 -63 -53 -63 -156c0 -104 22 -156 63 -156c43 0 66 52 66 156c0 103 -24 156 -66 156zM751 407
c116 0 189 -80 189 -209c0 -130 -73 -210 -189 -210s-189 79 -189 210c0 130 73 209 189 209zM747 354c-41 0 -63 -53 -63 -156c0 -104 22 -156 63 -156c43 0 65 52 65 156c0 103 -23 156 -65 156z" />
    <glyph glyph-name="ampersand" unicode="&#x26;" horiz-adv-x="822" 
d="M368 401c33 40 49 73 49 114c0 65 -29 103 -74 103c-43 0 -74 -31 -74 -68c0 -48 35 -90 99 -149zM411 365l152 -145c27 28 45 63 58 109l-8 16l-54 8v52h223v-52l-73 -15c-24 -63 -56 -118 -100 -165l107 -110l79 -7v-56h-251v23l-44 49c-67 -57 -140 -84 -231 -84
c-127 0 -216 84 -216 196c0 87 52 145 153 166c-69 46 -103 101 -103 163c0 102 91 172 244 172c138 0 223 -66 223 -162c0 -80 -60 -143 -159 -158zM250 314c-22 -23 -33 -50 -33 -82c0 -77 66 -143 150 -143c32 0 60 9 87 26z" />
    <glyph glyph-name="quoteright" unicode="&#x2019;" horiz-adv-x="331" 
d="M67 349v59c72 12 112 57 112 123v7h-60c-17 16 -25 38 -25 64c0 49 32 81 80 81c64 0 104 -44 104 -117c0 -111 -83 -203 -211 -217z" />
    <glyph glyph-name="parenleft" unicode="(" horiz-adv-x="440" 
d="M403 718v-60c-121 -8 -168 -129 -168 -373c0 -240 50 -361 168 -367v-60h-6c-197 0 -317 153 -317 427c0 281 118 433 321 433h2z" />
    <glyph glyph-name="parenright" unicode=")" horiz-adv-x="440" 
d="M32 -142v60c121 8 168 129 168 373c0 240 -50 361 -168 367v60h6c197 0 318 -153 318 -427c0 -281 -119 -433 -322 -433h-2z" />
    <glyph glyph-name="asterisk" unicode="*" 
d="M249 718l56 -61l-46 -125h-19l-47 125zM371 606l74 -34l-40 -72l-133 6l-5 18zM266 494l110 -74l-9 -81l-80 16l-36 128zM232 494l14 -11l-36 -128l-80 -16l-9 82zM127 606l104 -83l-6 -17l-132 -5l-41 71z" />
    <glyph glyph-name="plus" unicode="+" horiz-adv-x="833" 
d="M458 596v-257h251v-81h-251v-258h-83v258h-251v81h251v257h83z" />
    <glyph glyph-name="comma" unicode="," horiz-adv-x="322" 
d="M31 -182v59c72 12 112 57 112 123v7h-60c-17 16 -25 38 -25 64c0 49 32 81 80 81c64 0 104 -44 104 -117c0 -111 -83 -203 -211 -217z" />
    <glyph glyph-name="hyphen" unicode="-" horiz-adv-x="333" 
d="M25 306h283v-130h-283v130z" />
    <glyph glyph-name="period" unicode="." horiz-adv-x="322" 
d="M160 184c53 0 96 -43 96 -96c0 -52 -44 -94 -96 -94c-51 0 -94 41 -94 94c0 54 42 96 94 96z" />
    <glyph glyph-name="slash" unicode="/" 
d="M399 671h90l-427 -764h-90z" />
    <glyph glyph-name="zero" unicode="0" horiz-adv-x="644" 
d="M320 683c173 0 284 -129 284 -347c0 -219 -111 -348 -284 -348c-171 0 -280 129 -280 348s109 347 280 347zM321 618c-68 0 -99 -93 -99 -281c0 -190 28 -283 99 -283c72 0 100 93 100 283c0 189 -29 281 -100 281z" />
    <glyph glyph-name="one" unicode="1" horiz-adv-x="644" 
d="M336 678h103v-601l11 -15l110 -4v-58h-424v58l116 6l12 17v466l-13 11l-143 -19v60z" />
    <glyph glyph-name="two" unicode="2" horiz-adv-x="644" 
d="M209 125h275l18 90h79v-215h-525v96c211 150 320 262 320 381c0 83 -47 130 -128 130c-7 0 -14 0 -22 -1v-151c-32 -14 -60 -21 -83 -21c-56 0 -91 34 -91 83c0 94 96 167 253 167c161 0 255 -80 255 -200c0 -127 -117 -240 -351 -359z" />
    <glyph glyph-name="three" unicode="3" horiz-adv-x="644" 
d="M364 354c137 -8 212 -70 212 -168c0 -112 -115 -199 -301 -199c-152 0 -240 60 -240 136c0 50 35 85 90 85c16 0 36 -3 57 -10l34 -131c23 -5 42 -8 57 -8c72 0 120 50 120 123c0 72 -55 120 -136 120c-28 0 -53 -2 -74 -8v87c15 -2 28 -3 39 -3c92 0 147 43 147 112
c0 74 -50 120 -133 120c-6 0 -12 -1 -18 -1v-140c-24 -12 -47 -17 -70 -17c-57 0 -93 33 -93 82c0 82 95 148 254 148c150 0 241 -69 241 -168c0 -81 -65 -140 -186 -160z" />
    <glyph glyph-name="four" unicode="4" horiz-adv-x="644" 
d="M358 677h140v-417h118v-94h-118v-191h-160v191h-313v99zM338 514l-206 -254h206v254z" />
    <glyph glyph-name="five" unicode="5" horiz-adv-x="644" 
d="M94 671h444v-129h-344v-139c54 19 102 28 147 28c146 0 242 -82 242 -202c0 -144 -117 -241 -315 -241c-138 0 -220 60 -220 132c0 52 39 92 95 92c18 0 38 -4 62 -12l30 -140c10 -1 18 -2 26 -2c86 0 146 59 146 141c0 79 -67 135 -172 135c-43 0 -90 -8 -141 -24v361z
" />
    <glyph glyph-name="six" unicode="6" horiz-adv-x="644" 
d="M512 714v-89l-62 9c-123 -14 -198 -89 -219 -217c47 28 101 44 155 44c126 0 221 -97 221 -230c0 -145 -108 -246 -279 -246c-180 0 -283 114 -283 316c0 125 44 228 130 309c78 73 179 104 313 104h24zM221 353c-1 -21 -2 -42 -2 -61c0 -156 40 -235 111 -235
c59 0 98 56 98 147c0 114 -40 158 -140 158c-24 0 -46 -3 -67 -9z" />
    <glyph glyph-name="seven" unicode="7" horiz-adv-x="644" 
d="M83 671h519v-90l-331 -578v-33h-134l332 555h-284l-16 -94h-86v240z" />
    <glyph glyph-name="eight" unicode="8" horiz-adv-x="644" 
d="M387 389c19 31 29 61 29 94c0 81 -41 131 -100 131c-45 0 -78 -34 -78 -85c0 -59 49 -97 149 -140zM441 362c106 -40 153 -89 153 -177c0 -122 -102 -200 -284 -200c-170 0 -270 83 -270 195c0 77 48 127 139 146c-75 35 -112 86 -112 158c0 122 101 201 270 201
c145 0 232 -73 232 -180c0 -63 -44 -112 -128 -143zM232 300c-21 -39 -32 -72 -32 -100c0 -83 55 -145 127 -145c58 0 102 40 102 89c0 61 -66 99 -197 156z" />
    <glyph glyph-name="nine" unicode="9" horiz-adv-x="644" 
d="M418 323c5 33 7 62 7 89c0 135 -39 204 -106 204c-56 0 -100 -56 -100 -149c0 -104 51 -158 148 -158c14 0 31 5 51 14zM137 -55l-33 86h56c128 49 206 119 242 224c-49 -26 -95 -39 -139 -39c-133 0 -223 91 -223 218c0 148 111 252 284 252c168 0 278 -109 278 -273
c0 -215 -164 -394 -465 -468z" />
    <glyph glyph-name="colon" unicode=":" horiz-adv-x="387" 
d="M193 496c53 0 95 -43 95 -96c0 -52 -43 -94 -95 -94c-51 0 -95 41 -95 94c0 54 43 96 95 96zM193 184c53 0 95 -43 95 -96c0 -52 -43 -94 -95 -94c-51 0 -95 41 -95 94c0 54 43 96 95 96z" />
    <glyph glyph-name="semicolon" unicode=";" horiz-adv-x="387" 
d="M193 496c53 0 93 -43 93 -96c0 -52 -41 -94 -93 -94c-51 0 -93 41 -93 94c0 54 41 96 93 96zM74 -182v59c72 12 111 57 111 123v7h-59c-17 16 -26 38 -26 64c0 49 33 81 81 81c64 0 105 -44 105 -117c0 -111 -84 -203 -212 -217z" />
    <glyph glyph-name="less" unicode="&#x3c;" horiz-adv-x="833" 
d="M704 593v-124l-417 -171l417 -170v-124l-575 237v114z" />
    <glyph glyph-name="equal" unicode="=" horiz-adv-x="833" 
d="M709 440v-82h-585v82h585zM709 238v-81h-585v81h585z" />
    <glyph glyph-name="greater" unicode="&#x3e;" horiz-adv-x="833" 
d="M129 593l575 -238v-114l-575 -237v124l417 170l-417 171v124z" />
    <glyph glyph-name="question" unicode="?" horiz-adv-x="519" 
d="M236 279v-64h-78v124c100 32 151 86 151 159s-45 114 -129 115l-52 -127c-9 -1 -17 -1 -24 -1c-57 0 -87 25 -87 70c0 71 78 129 211 129c161 0 253 -72 253 -185c0 -107 -81 -180 -245 -220zM200 184c53 0 95 -43 95 -96c0 -52 -43 -94 -95 -94c-51 0 -95 41 -95 94
c0 54 43 96 95 96z" />
    <glyph glyph-name="at" unicode="@" horiz-adv-x="942" 
d="M537 434c-6 1 -12 2 -18 2c-71 0 -132 -83 -132 -199c0 -66 24 -101 66 -101c28 0 56 20 84 59l32 189zM710 488c-12 -31 -18 -64 -26 -101l-36 -168c-6 -26 -10 -46 -10 -63c0 -18 14 -32 32 -32c25 0 57 17 82 51c40 53 63 124 63 193c0 162 -110 269 -288 269
c-96 0 -183 -33 -249 -95c-80 -75 -120 -169 -120 -283c0 -212 138 -351 346 -351c86 0 173 24 257 72l20 -45c-106 -59 -210 -88 -304 -88c-112 0 -212 39 -289 113c-74 71 -112 168 -112 286c0 132 49 244 145 332c81 74 191 115 312 115c204 0 338 -130 338 -319
c0 -74 -19 -142 -55 -198c-50 -77 -131 -123 -197 -123c-55 0 -82 25 -86 76c-49 -48 -96 -72 -142 -72c-76 0 -128 61 -128 160c0 63 19 122 56 171c49 66 122 104 193 104c32 0 63 -9 97 -27l19 23h82z" />
    <glyph glyph-name="A" unicode="A" horiz-adv-x="701" 
d="M278 676h144l232 -610l61 -8v-58h-324v58l68 5l8 13l-53 149h-213l-50 -148l10 -12l64 -7v-58h-241v58l65 4zM304 513l-79 -221h160z" />
    <glyph glyph-name="B" unicode="B" horiz-adv-x="690" 
d="M25 671h359c149 0 225 -55 225 -152c0 -80 -52 -135 -150 -161c121 -4 187 -64 187 -162c0 -126 -89 -196 -254 -196h-367v58l63 4l16 19v513l-16 15l-63 4v58zM278 380h18c91 0 131 36 131 119c0 73 -40 108 -124 108c-8 0 -16 0 -25 -1v-226zM278 65c12 -1 24 -1 35 -1
c102 0 148 38 148 126c0 82 -51 123 -152 123c-10 0 -20 0 -31 -1v-247z" />
    <glyph glyph-name="C" unicode="C" horiz-adv-x="683" 
d="M639 24c-71 -25 -147 -38 -230 -38c-79 0 -150 19 -203 51c-105 63 -166 174 -166 299c0 94 38 182 107 248c67 65 159 100 270 100c85 0 159 -14 222 -40v-181h-92l-24 123l-17 16c-17 4 -36 5 -55 5c-127 0 -216 -103 -216 -270c0 -173 91 -275 214 -275
c20 0 39 1 57 4l16 15l26 130h91v-187z" />
    <glyph glyph-name="D" unicode="D" horiz-adv-x="780" 
d="M374 671c237 0 368 -125 368 -335c0 -212 -129 -336 -368 -336h-349v58l67 4l16 19v509l-16 19l-67 4v58h349zM287 604v-537h41c143 0 212 88 212 269c0 180 -69 268 -212 268h-41z" />
    <glyph glyph-name="E" unicode="E" horiz-adv-x="653" 
d="M25 0v58l67 4l16 19v513l-16 15l-67 4v58h550v-167h-85l-16 89l-14 11h-178v-222h105l15 14l10 72h71v-246h-71l-10 72l-15 14h-105v-241h209l14 16l18 111h83v-194h-581z" />
    <glyph glyph-name="F" unicode="F" horiz-adv-x="602" 
d="M28 0v58l64 4l16 19v513l-16 15l-64 4v58h546v-180h-86l-16 99l-14 12h-172v-236h114l14 13l10 72h71v-245h-71l-10 72l-14 14h-114v-211l19 -19l72 -4v-58h-349z" />
    <glyph glyph-name="G" unicode="G" horiz-adv-x="766" 
d="M397 338h345v-57l-63 -5l-16 -14v-228c-80 -31 -163 -46 -250 -46c-226 0 -374 143 -374 348c0 209 150 345 389 345c69 0 148 -11 235 -36v-182h-91l-23 121l-18 16c-21 5 -40 9 -58 9c-153 0 -245 -101 -245 -276c0 -164 98 -272 248 -272h16v201l-17 14l-78 5v57z" />
    <glyph glyph-name="H" unicode="H" horiz-adv-x="824" 
d="M28 671h332v-58l-60 -4l-16 -19v-201h251v201l-16 19l-61 4v58h334v-58l-62 -4l-16 -19v-509l16 -19l62 -4v-58h-334v58l61 4l16 19v234h-251v-234l16 -19l60 -4v-58h-332v58l61 4l17 19v509l-17 19l-61 4v58z" />
    <glyph glyph-name="I" unicode="I" horiz-adv-x="410" 
d="M25 0v58l72 4l16 19v513l-16 15l-72 4v58h357v-58l-74 -4l-16 -15v-513l16 -19l74 -4v-58h-357z" />
    <glyph glyph-name="J" unicode="J" horiz-adv-x="516" 
d="M252 594l-17 15l-75 5v57h348v-57l-62 -5l-17 -15v-325c0 -198 -76 -281 -267 -281c-46 0 -95 8 -150 24v192h92l23 -136l13 -13c93 5 112 71 112 215v324z" />
    <glyph glyph-name="K" unicode="K" horiz-adv-x="727" 
d="M25 0v58l67 4l16 19v513l-16 15l-67 4v58h336v-58l-59 -5l-16 -14v-251h22l222 253l-5 12l-60 5v58h250v-58l-76 -5l-179 -204l209 -340l74 -6v-58h-257v39l-153 250h-47v-208l16 -19l59 -4v-58h-336z" />
    <glyph glyph-name="L" unicode="L" horiz-adv-x="600" 
d="M29 0v58l60 4l19 19v513l-13 15l-66 4v58h341v-58l-67 -4l-17 -15v-525h170l12 17l14 125h99v-211h-552z" />
    <glyph glyph-name="M" unicode="M" horiz-adv-x="961" 
d="M19 0v58l70 4l12 19v516l-12 12l-70 7v55h323v-29l138 -419l137 420v28h324v-55l-75 -7l-12 -14v-514l12 -19l75 -4v-58h-324v58l62 4l9 19v516h-2l-196 -597h-101l-196 597h-2v-516l12 -19l66 -4v-58h-250z" />
    <glyph glyph-name="N" unicode="N" horiz-adv-x="782" 
d="M23 0v56l61 6l19 19v513l-13 15l-67 7v55h282v-27l287 -445v391l-18 19l-65 7v55h253v-55l-59 -7l-19 -19v-590h-159l-331 510v-429l14 -19l67 -6v-56h-252z" />
    <glyph glyph-name="O" unicode="O" horiz-adv-x="815" 
d="M39 342c0 205 146 343 370 343c94 0 174 -26 232 -71c88 -68 135 -165 135 -275c0 -206 -152 -356 -375 -356c-218 0 -362 143 -362 359zM408 610c-101 0 -170 -104 -170 -283c0 -170 75 -274 171 -274s167 103 167 285c0 172 -71 272 -168 272z" />
    <glyph glyph-name="P" unicode="P" horiz-adv-x="653" 
d="M25 0v58l64 4l19 19v513l-13 15l-70 4v58h324c189 0 280 -65 280 -207c0 -143 -99 -223 -285 -223c-18 0 -38 0 -58 2v-162l15 -19l74 -4v-58h-350zM286 310h14c96 0 141 48 141 151c0 88 -44 141 -114 141h-41v-292z" />
    <glyph glyph-name="Q" unicode="Q" horiz-adv-x="815" 
d="M511 6c2 -79 44 -112 134 -112c32 0 64 4 96 11v-60c-69 -17 -134 -26 -196 -26c-156 0 -225 52 -225 174v5c-176 30 -279 157 -279 344c0 205 145 343 367 343c94 0 174 -25 233 -71c88 -68 135 -166 135 -278c0 -170 -105 -302 -265 -330zM238 332
c0 -169 75 -273 172 -273c95 0 166 103 166 282c0 171 -69 269 -167 269c-101 0 -171 -102 -171 -278z" />
    <glyph glyph-name="R" unicode="R" horiz-adv-x="736" 
d="M28 671h367c156 0 237 -59 237 -166c0 -96 -63 -153 -188 -171c41 -8 74 -22 98 -44c47 -43 61 -99 84 -156s46 -75 117 -75h12v-59c-62 -4 -104 -6 -126 -6c-55 0 -98 9 -132 32c-54 36 -58 100 -81 168c-24 69 -57 98 -124 98h-10v-211l16 -19l66 -4v-58h-336v58l64 4
l16 19v513l-16 15l-64 4v58zM282 603v-244c8 0 15 -1 23 -1c96 0 144 43 144 127c0 72 -46 118 -121 118h-46z" />
    <glyph glyph-name="S" unicode="S" horiz-adv-x="616" 
d="M59 24v185h94l22 -123l14 -15c26 -4 51 -5 76 -5c80 0 126 37 126 91c0 18 -6 36 -18 49c-32 37 -89 48 -156 78c-101 45 -150 103 -150 190c0 123 98 210 260 210c66 0 138 -13 214 -40v-169h-93l-20 111l-12 12c-19 7 -38 9 -60 9c-78 0 -121 -36 -121 -89
c0 -62 56 -79 145 -117c119 -50 182 -90 182 -198c0 -127 -106 -215 -285 -215c-64 0 -136 13 -218 36z" />
    <glyph glyph-name="T" unicode="T" horiz-adv-x="646" 
d="M15 671h615v-201h-84l-21 121l-18 12h-95v-522l19 -19l66 -4v-58h-350v58l67 4l19 19v522h-97l-17 -12l-20 -121h-84v201z" />
    <glyph glyph-name="U" unicode="U" horiz-adv-x="757" 
d="M16 671h338v-58l-65 -4l-12 -15v-337c0 -120 39 -173 151 -173s141 60 141 192v318l-12 15l-71 4v58h252v-58l-64 -4l-13 -15v-331c0 -195 -81 -277 -283 -277c-116 0 -197 34 -244 104c-34 51 -35 109 -35 183v321l-12 15l-71 4v58z" />
    <glyph glyph-name="V" unicode="V" horiz-adv-x="690" 
d="M-21 671h327v-58l-61 -4l-11 -15l153 -413l151 413l-12 15l-63 4v58h247v-58l-71 -14l-225 -599h-134l-230 602l-71 11v58z" />
    <glyph glyph-name="W" unicode="W" horiz-adv-x="1014" 
d="M234 0l-165 600l-66 15v56h309v-56l-63 -7l-8 -14l100 -372l135 449h136l139 -460l94 376l-12 14l-68 14v56h236v-56l-63 -16l-154 -599h-126l-150 482l-148 -482h-126z" />
    <glyph glyph-name="X" unicode="X" horiz-adv-x="713" 
d="M16 671h335v-55l-63 -5l-8 -13l104 -168l125 164l-9 15l-53 7v55h250v-55l-63 -7l-197 -242l200 -299l68 -12v-56h-337v56l60 7l7 14l-110 174l-131 -174l6 -15l64 -6v-56h-257v56l65 6l197 253l-190 294l-63 7v55z" />
    <glyph glyph-name="Y" unicode="Y" horiz-adv-x="671" 
d="M-10 671h324v-57l-58 -5l-9 -14l129 -235l125 226l-8 18l-60 10v57h240v-57l-61 -10l-181 -312v-214l16 -15l71 -5v-58h-350v58l68 5l16 15v177l-194 348l-68 11v57z" />
    <glyph glyph-name="Z" unicode="Z" horiz-adv-x="634" 
d="M59 671h517v-69l-337 -533h223l12 14l17 125h92v-208h-539v69l337 535h-198l-19 -13l-17 -119h-88v199z" />
    <glyph glyph-name="bracketleft" unicode="[" horiz-adv-x="495" 
d="M139 708h312v-68h-157v-704h157v-68h-312v840z" />
    <glyph glyph-name="backslash" unicode="\" 
d="M-29 671h90l428 -764h-90z" />
    <glyph glyph-name="bracketright" unicode="]" horiz-adv-x="495" 
d="M40 708h312v-840h-312v68h157v704h-157v68z" />
    <glyph glyph-name="asciicircum" unicode="^" horiz-adv-x="1000" 
d="M436 714h127l234 -276h-59l-239 170l-239 -170h-59z" />
    <glyph glyph-name="underscore" unicode="_" 
d="M0 -119h500v-117h-500v117z" />
    <glyph glyph-name="quoteleft" unicode="&#x2018;" horiz-adv-x="331" 
d="M277 683v-59c-72 -12 -112 -57 -112 -123v-7h60c17 -16 25 -38 25 -64c0 -49 -32 -81 -80 -81c-64 0 -104 44 -104 117c0 111 83 203 211 217z" />
    <glyph glyph-name="a" unicode="a" horiz-adv-x="616" 
d="M367 56c-71 -46 -131 -69 -182 -69c-86 0 -146 57 -146 138c0 61 37 114 94 135c43 16 122 37 234 61v29c0 65 -37 98 -109 98h-16v-104h-119c-42 0 -60 10 -60 41c0 58 96 123 258 123c88 0 151 -23 186 -68c28 -36 29 -78 29 -133v-238l11 -12l55 -6v-51h-221zM367 105
v150c-102 -13 -149 -39 -149 -99c0 -42 30 -70 76 -70c20 0 44 7 73 19z" />
    <glyph glyph-name="b" unicode="b" horiz-adv-x="650" 
d="M188 743h58v-295c60 34 107 58 167 58c110 0 202 -97 202 -234c0 -179 -120 -276 -354 -276c-30 0 -58 0 -84 1l-97 4v636h-70v48zM247 61c6 0 12 -1 18 -1c111 0 166 63 166 186c0 107 -50 158 -154 158c-10 0 -20 0 -30 -1v-342z" />
    <glyph glyph-name="c" unicode="c" horiz-adv-x="537" 
d="M522 48c-75 -35 -144 -56 -220 -56c-89 0 -148 19 -203 78c-42 46 -65 106 -65 174c0 157 118 263 292 263c118 0 192 -55 192 -127c0 -49 -38 -82 -92 -82c-29 0 -54 8 -80 24v132c-81 -8 -129 -76 -129 -191c0 -107 62 -177 149 -177c43 0 93 19 156 51v-89z" />
    <glyph glyph-name="d" unicode="d" horiz-adv-x="664" 
d="M412 635h-72v49l181 59h55v-671l13 -17l57 -4v-51h-234v61c-65 -42 -115 -70 -172 -70c-118 0 -202 101 -202 251c0 159 111 267 265 267c29 0 65 -4 109 -11v137zM412 101v325c-25 10 -47 15 -66 15c-76 0 -123 -64 -123 -181c0 -108 45 -164 128 -164c15 0 35 1 61 5z
" />
    <glyph glyph-name="e" unicode="e" horiz-adv-x="590" 
d="M554 141v-92c-77 -39 -156 -57 -244 -57c-166 0 -272 101 -272 252c0 163 109 266 276 266c153 0 243 -90 243 -250v-13h-343c0 -100 57 -159 144 -159c69 0 132 17 196 53zM379 310v5c0 88 -24 130 -76 130c-57 0 -89 -44 -89 -131c0 -1 1 -2 1 -3c0 0 0 -1 -1 -1h165z
" />
    <glyph glyph-name="f" unicode="f" horiz-adv-x="387" 
d="M35 0v56l47 6l13 16v329h-70v46l70 44c0 148 119 251 258 251c71 0 114 -36 114 -89c0 -40 -27 -62 -83 -79l-108 113c-9 -17 -16 -64 -16 -134v-78h135v-74h-135v-332l16 -14l75 -5v-56h-316z" />
    <glyph glyph-name="g" unicode="g" horiz-adv-x="613" 
d="M461 472h158v-66h-110c14 -21 20 -44 20 -71c0 -101 -85 -166 -247 -166c-10 0 -24 1 -42 3c-3 -10 -4 -20 -4 -30s1 -20 4 -30l43 -4c192 -22 287 -42 287 -144c0 -94 -118 -181 -305 -181c-157 0 -240 52 -240 139c0 60 40 103 105 103h2c-12 22 -18 41 -18 59
c0 35 21 63 64 92c-88 29 -130 77 -130 153c0 109 87 176 244 176c55 0 109 -14 169 -33zM363 347c0 64 -29 101 -69 101c-41 0 -71 -41 -71 -109c0 -77 27 -120 68 -120c45 0 72 45 72 128zM196 8c-6 -19 -10 -38 -10 -56c0 -61 53 -108 119 -108c61 0 100 34 100 81
c0 54 -43 58 -131 71z" />
    <glyph glyph-name="h" unicode="h" horiz-adv-x="667" 
d="M194 743h57v-301c78 40 139 64 189 64c103 0 145 -59 145 -181v-254l11 -13l54 -5v-53h-281v53l40 5l11 13v213c0 82 -22 115 -105 115c-24 0 -45 0 -64 -3v-325l14 -13l42 -5v-53h-285v53l51 5l12 13v566h-71v48z" />
    <glyph glyph-name="i" unicode="i" horiz-adv-x="354" 
d="M176 740c59 0 96 -38 96 -92c0 -52 -41 -92 -94 -92c-50 0 -90 37 -90 92c0 53 37 92 88 92zM204 507h58v-436l13 -13l61 -5v-53h-311v53l59 5l11 13v329h-64v49z" />
    <glyph glyph-name="j" unicode="j" horiz-adv-x="352" 
d="M111 400h-74v47l192 60h48v-395c0 -217 -90 -329 -251 -329c-77 0 -120 35 -120 90c0 44 36 82 84 83l106 -124c14 70 15 142 15 215v353zM102 648c0 53 37 92 88 92c59 0 96 -38 96 -92c0 -52 -41 -92 -94 -92c-50 0 -90 37 -90 92z" />
    <glyph glyph-name="k" unicode="k" horiz-adv-x="623" 
d="M23 0v51l51 5l13 16v565h-73v48l192 58h46v-480h28l141 162l-7 10l-46 4v52h227v-52l-71 -7l-96 -108l149 -268l59 -5v-51h-236v45l-102 181h-46v-158l9 -12l55 -5v-51h-293z" />
    <glyph glyph-name="l" unicode="l" horiz-adv-x="350" 
d="M19 0v51l58 8l13 12v564h-69v49l185 59h51v-669l14 -16l61 -7v-51h-313z" />
    <glyph glyph-name="m" unicode="m" horiz-adv-x="991" 
d="M569 436c83 47 149 72 198 72c103 0 145 -61 145 -183v-254l10 -13l55 -5v-53h-281v53l39 5l12 13v213c0 83 -23 118 -105 118c-22 0 -42 -4 -60 -10v-321l12 -14l44 -4v-53h-267v53l36 4l12 17v223c0 72 -30 105 -100 105c-17 0 -36 -2 -57 -6v-325l13 -13l37 -5v-53
h-280v53l52 5l11 13v329h-63v49l172 59h58v-66c73 43 131 66 180 66c53 0 91 -22 127 -72z" />
    <glyph glyph-name="n" unicode="n" horiz-adv-x="678" 
d="M32 0v53l52 5l11 13v329h-70v49l179 57h58v-64c78 40 138 64 188 64c103 0 145 -59 145 -181v-254l11 -13l54 -5v-53h-280v53l39 5l12 13v213c0 82 -23 117 -106 117c-24 0 -44 -2 -63 -5v-325l13 -13l42 -5v-53h-285z" />
    <glyph glyph-name="o" unicode="o" horiz-adv-x="650" 
d="M333 507c177 0 281 -99 281 -257c0 -161 -103 -257 -289 -257c-184 0 -287 96 -287 257s107 257 295 257zM327 444c-70 0 -102 -64 -102 -194c0 -131 31 -195 102 -195c70 0 100 63 100 190c0 135 -29 199 -100 199z" />
    <glyph glyph-name="p" unicode="p" horiz-adv-x="667" 
d="M23 -220v55l57 6l11 15v544h-70v49l183 60h52v-69c68 42 121 69 175 69c107 0 195 -98 195 -244c0 -156 -112 -265 -290 -265c-18 0 -45 2 -80 5v-154l13 -12l64 -4v-55h-310zM256 62c10 -1 20 -2 29 -2c102 0 155 65 155 190c0 98 -46 152 -131 152c-13 0 -30 -4 -53 -7
v-333z" />
    <glyph glyph-name="q" unicode="q" horiz-adv-x="655" 
d="M580 498c-2 -24 -4 -38 -4 -43v-603l15 -12l49 -3v-55h-311v55l68 4l14 12v201c-63 -38 -119 -58 -172 -58c-110 0 -201 97 -201 234c0 179 120 276 353 276c34 0 68 -1 100 -2c25 -1 54 -3 89 -6zM411 441c-7 0 -14 1 -21 1c-113 0 -168 -62 -168 -186
c0 -107 51 -158 156 -158c11 0 22 0 33 1v342z" />
    <glyph glyph-name="r" unicode="r" horiz-adv-x="488" 
d="M29 0v53l55 5l11 13v329h-75v49l184 56h57l-8 -112c44 48 89 85 134 110c10 1 20 2 29 2c27 0 48 -6 65 -19l-28 -193h-71c-17 46 -48 67 -97 67c-7 0 -15 0 -23 -1v-288l13 -13l75 -5v-53h-321z" />
    <glyph glyph-name="s" unicode="s" horiz-adv-x="523" 
d="M462 482v-153h-72l-13 79l-13 14c-26 12 -50 18 -73 18c-49 0 -76 -21 -76 -56c0 -49 56 -57 135 -90c92 -38 136 -71 136 -143c0 -89 -94 -164 -231 -164c-61 0 -133 9 -213 29v167h73l11 -91l11 -13c37 -17 70 -25 101 -25c50 0 79 22 79 58c0 44 -36 52 -94 78
c-112 49 -175 83 -175 162c0 90 84 157 223 157c53 0 117 -9 191 -27z" />
    <glyph glyph-name="t" unicode="t" horiz-adv-x="407" 
d="M86 407h-72v46l86 54l63 116h89v-142h152v-74h-152v-233c0 -68 20 -87 96 -87c15 0 34 2 56 6v-58c-76 -28 -138 -41 -183 -41c-54 0 -96 18 -118 47c-15 20 -17 56 -17 107v259z" />
    <glyph glyph-name="u" unicode="u" horiz-adv-x="667" 
d="M191 507h60v-290c0 -90 18 -119 103 -119c15 0 35 1 57 3v299h-63v49l174 58h56v-435l10 -14l59 -4v-54h-236v55c-67 -40 -123 -64 -191 -64c-50 0 -92 23 -116 63c-21 35 -22 72 -22 116v230h-62v49z" />
    <glyph glyph-name="v" unicode="v" horiz-adv-x="565" 
d="M-8 493h301v-56l-55 -4l-9 -11l97 -260l105 259l-6 12l-51 4v56h209v-56l-60 -4l-176 -433h-127l-167 433l-61 4v56z" />
    <glyph glyph-name="w" unicode="w" horiz-adv-x="873" 
d="M0 493h287v-56l-48 -9l-11 -12l77 -255l106 332h141l107 -332l80 258l-7 11l-54 7v56h206v-56l-58 -4l-135 -433h-142l-108 343l-109 -343h-140l-130 433l-62 4v56z" />
    <glyph glyph-name="x" unicode="x" horiz-adv-x="593" 
d="M9 493h276v-48l-31 -5l-4 -12l80 -109l82 114l-42 12v48h194v-56l-58 -4l-129 -155l157 -217l50 -11v-50h-265v50l30 4l4 9l-88 121l-91 -126l41 -8v-50h-206v50l65 15l141 166l-150 203l-56 3v56z" />
    <glyph glyph-name="y" unicode="y" horiz-adv-x="567" 
d="M-8 491h300v-49l-51 -7l-9 -12l103 -259l99 258l-10 13l-54 7v49h213v-49l-55 -10l-194 -453c-53 -124 -145 -202 -228 -202c-55 0 -100 43 -100 94c0 40 29 75 81 88l85 -81c31 19 57 50 79 94l-198 458l-61 12v49z" />
    <glyph glyph-name="z" unicode="z" horiz-adv-x="556" 
d="M49 0v75l261 354h-149l-12 -14l-11 -87h-83v163h447v-66l-265 -360h166l17 17l11 99h88v-181h-470z" />
    <glyph glyph-name="braceleft" unicode="{" 
d="M441 641c-101 -4 -124 -36 -124 -130v-42c0 -105 -54 -163 -165 -176c111 -13 165 -70 165 -175v-64c0 -89 27 -120 124 -121v-66h-33c-179 0 -245 42 -245 186v76c0 96 -26 130 -117 130h-16v68h16c91 0 117 34 117 130v65c0 144 66 185 245 185h33v-66z" />
    <glyph glyph-name="bar" unicode="|" 
d="M192 764h117v-1000h-117v1000z" />
    <glyph glyph-name="braceright" unicode="}" 
d="M53 707h33c179 0 244 -41 244 -185v-65c0 -94 26 -130 119 -130h15v-68h-16c-91 0 -118 -34 -118 -130v-76c0 -144 -65 -186 -244 -186h-33v66c97 1 123 31 123 121v64c0 105 55 162 166 175c-111 13 -166 71 -166 176v42c0 94 -22 126 -123 130v66z" />
    <glyph glyph-name="asciitilde" unicode="~" horiz-adv-x="833" 
d="M747 400v-124c-64 -44 -124 -67 -184 -67c-30 0 -59 5 -84 14c-72 25 -137 50 -205 50c-59 0 -117 -27 -187 -77v124c71 46 133 70 189 70s101 -14 144 -28c48 -16 94 -36 146 -36c58 0 115 26 181 74z" />
    <glyph glyph-name="exclamdown" unicode="&#xa1;" horiz-adv-x="343" 
d="M169 507c51 0 94 -42 94 -94c0 -54 -42 -96 -94 -96c-53 0 -96 43 -96 96c0 52 44 94 96 94zM139 277h57l65 -329c5 -25 7 -41 7 -48c0 -51 -39 -85 -100 -85s-99 35 -99 85c0 9 1 24 5 44z" />
    <glyph glyph-name="cent" unicode="&#xa2;" horiz-adv-x="644" 
d="M350 623h65v-102c55 -4 103 -15 147 -34v-142h-72l-15 93c-19 9 -39 15 -60 15v-385c21 0 41 4 61 11l16 99h73v-150c-47 -15 -97 -24 -150 -28v-107h-65v107c-181 5 -295 114 -295 261c0 148 111 254 295 260v102zM350 452c-76 -19 -123 -90 -123 -195
c0 -96 48 -167 123 -187v382z" />
    <glyph glyph-name="sterling" unicode="&#xa3;" horiz-adv-x="644" 
d="M444 476v138c-12 2 -20 3 -27 3c-79 0 -104 -62 -104 -189c0 -20 1 -41 2 -61h180v-74h-179c-3 -83 -36 -135 -107 -165l3 -13c36 7 62 10 78 10h305v-125h-545v88c71 14 101 69 101 170c0 11 0 23 -1 35h-71v74h69c-2 34 -2 56 -2 68c0 158 88 246 241 246
c130 0 211 -58 211 -131c0 -51 -35 -85 -94 -85c-22 0 -42 3 -60 11z" />
    <glyph glyph-name="fraction" unicode="&#x2044;" horiz-adv-x="185" 
d="M266 671h81l-428 -671h-81z" />
    <glyph glyph-name="yen" unicode="&#xa5;" horiz-adv-x="671" 
d="M-10 671h324v-58l-58 -4l-9 -14l129 -235l125 226l-8 18l-60 9v58h240v-58l-61 -9l-98 -170h127v-58h-160l-49 -87h209v-58h-210v-153l16 -15l71 -5v-58h-350v58l68 5l16 15v153h-222v58h202l-47 87h-155v58h121l-93 169l-68 10v58z" />
    <glyph glyph-name="florin" unicode="&#x192;" horiz-adv-x="644" 
d="M111 299v71h109c0 8 -1 16 -1 24c0 185 103 290 263 290c66 0 107 -36 107 -87c0 -41 -27 -69 -83 -91l-105 119c-12 -27 -13 -79 -13 -155v-100h156v-71h-156v-69c0 -71 -1 -128 -9 -169c-8 -40 -27 -76 -57 -110c-51 -59 -123 -93 -190 -93c-73 0 -121 40 -121 87
c0 40 29 75 81 92l105 -113c24 39 28 100 28 185v190h-114z" />
    <glyph glyph-name="section" unicode="&#xa7;" 
d="M440 695v-144h-61l-10 84c-30 17 -58 26 -86 26c-55 0 -91 -32 -91 -74c0 -53 54 -68 137 -110c95 -48 143 -98 143 -171c0 -68 -45 -131 -122 -162c67 -41 99 -78 99 -133c0 -90 -77 -154 -215 -154c-64 0 -124 12 -181 34v144h67l13 -93c30 -16 58 -24 86 -24
c56 0 93 33 93 75c0 59 -63 79 -160 127c-83 41 -124 96 -124 167c0 72 39 122 118 156c-65 36 -95 76 -95 131c0 86 80 147 220 147c52 0 108 -9 169 -26zM209 406c-53 -18 -81 -47 -81 -86c0 -52 55 -90 161 -139c52 26 77 53 77 90c0 48 -53 87 -157 135z" />
    <glyph glyph-name="currency" unicode="&#xa4;" horiz-adv-x="606" 
d="M87 705l99 -98c32 22 70 36 117 36c45 0 85 -12 119 -36l98 98l58 -57l-98 -100c23 -35 34 -73 34 -116c0 -42 -11 -81 -34 -116l98 -99l-58 -58l-98 99c-35 -25 -73 -36 -118 -36s-82 11 -118 36l-99 -99l-57 58l98 99c-23 34 -35 72 -35 116s12 83 35 116l-98 100z
M304 559c-70 0 -127 -58 -127 -127c0 -70 56 -126 127 -126c70 0 126 56 126 126c0 69 -56 127 -126 127z" />
    <glyph glyph-name="quotesingle" unicode="'" horiz-adv-x="181" 
d="M101 413h-21l-42 226c-1 6 -2 12 -2 18c0 35 22 58 55 58s54 -22 54 -57c0 -6 -1 -13 -2 -19z" />
    <glyph glyph-name="quotedblleft" unicode="&#x201c;" horiz-adv-x="579" 
d="M277 683v-59c-72 -12 -111 -57 -111 -123v-7h59c17 -16 25 -38 25 -64c0 -49 -32 -81 -80 -81c-64 0 -103 44 -103 117c0 111 82 203 210 217zM528 683v-59c-72 -12 -112 -57 -112 -123v-7h60c17 -16 25 -38 25 -64c0 -49 -32 -81 -80 -81c-64 0 -104 44 -104 117
c0 111 83 203 211 217z" />
    <glyph glyph-name="guillemotleft" unicode="&#xab;" horiz-adv-x="458" 
d="M219 438v-101l-103 -97l103 -96v-101l-187 152v90zM424 438v-101l-103 -97l103 -96v-101l-187 152v90z" />
    <glyph glyph-name="guilsinglleft" unicode="&#x2039;" horiz-adv-x="287" 
d="M219 438v-101l-103 -97l103 -96v-101l-187 152v90z" />
    <glyph glyph-name="guilsinglright" unicode="&#x203a;" horiz-adv-x="287" 
d="M32 438l187 -153v-90l-187 -152v101l103 96l-103 97v101z" />
    <glyph glyph-name="fi" unicode="&#xfb01;" horiz-adv-x="708" 
d="M397 587l-121 106c-15 -27 -17 -81 -17 -165v-47h243l55 26h59v-436l12 -13l61 -5v-53h-302v53l50 5l14 13v336h-192v-335l17 -14l55 -5v-53h-296v53l47 5l13 14v335h-70v46l71 44c0 148 117 251 259 251c59 0 92 -28 92 -71c0 -33 -16 -63 -50 -90zM455 653
c0 50 35 87 82 87c54 0 89 -37 89 -84c0 -54 -38 -90 -87 -90c-46 0 -84 35 -84 87z" />
    <glyph glyph-name="fl" unicode="&#xfb02;" horiz-adv-x="713" 
d="M569 747h51v-673l14 -16l62 -6v-52h-314v52l59 7l15 12v562l-60 -47l-120 107c-14 -24 -17 -80 -17 -169v-43h136v-74h-136v-335l17 -14l55 -6v-52h-296v52l47 6l13 14v335h-70v46l71 44c0 148 117 250 258 250c49 0 82 -15 104 -51z" />
    <glyph glyph-name="endash" unicode="&#x2013;" 
d="M0 301h500v-120h-500v120z" />
    <glyph glyph-name="dagger" unicode="&#x2020;" 
d="M250 718l66 -76l-56 -140h-19l-56 140zM88 542l144 -51v-21l-144 -45l-71 59zM410 542l73 -58l-73 -59l-141 45v21zM241 460h19l56 -166l-56 -423h-19l-56 423z" />
    <glyph glyph-name="daggerdbl" unicode="&#x2021;" 
d="M251 718l60 -76l-50 -140h-18l-55 140zM88 542l144 -51v-21l-144 -45l-71 59zM410 542l73 -58l-73 -59l-141 45v21zM242 460h16l53 -166l-53 -167h-16l-54 167zM88 164l144 -51v-21l-144 -45l-71 58zM410 164l73 -59l-73 -58l-141 45v21zM243 84h18l50 -140l-60 -76
l-63 76z" />
    <glyph glyph-name="periodcentered" unicode="&#xb7;" horiz-adv-x="322" 
d="M160 431c53 0 96 -43 96 -96c0 -52 -44 -94 -96 -94c-51 0 -94 41 -94 94c0 54 42 96 94 96z" />
    <glyph glyph-name="paragraph" unicode="&#xb6;" 
d="M278 243h-14c-169 0 -252 69 -252 212c0 154 83 216 260 216h203v-50l-63 -10v-690h-65v695h-69v-373z" />
    <glyph glyph-name="bullet" unicode="&#x2022;" horiz-adv-x="590" 
d="M150 372c0 80 65 144 145 144c79 0 144 -64 144 -144c0 -79 -65 -145 -145 -145s-144 65 -144 145z" />
    <glyph glyph-name="quotesinglbase" unicode="&#x201a;" horiz-adv-x="331" 
d="M36 -182v59c72 12 112 57 112 123v7h-60c-17 16 -25 38 -25 64c0 49 32 81 80 81c64 0 104 -44 104 -117c0 -111 -83 -203 -211 -217z" />
    <glyph glyph-name="quotedblbase" unicode="&#x201e;" horiz-adv-x="579" 
d="M42 -182v59c72 12 111 57 111 123v7h-59c-17 16 -25 38 -25 64c0 49 32 81 80 81c64 0 103 -44 103 -117c0 -111 -82 -203 -210 -217zM292 -182v59c72 12 112 57 112 123v7h-60c-17 16 -25 38 -25 64c0 49 31 81 80 81c64 0 104 -44 104 -117c0 -111 -83 -203 -211 -217z
" />
    <glyph glyph-name="quotedblright" unicode="&#x201d;" horiz-adv-x="579" 
d="M67 349v59c72 12 111 57 111 123v7h-59c-17 16 -25 38 -25 64c0 49 32 81 80 81c64 0 103 -44 103 -117c0 -111 -82 -203 -210 -217zM317 349v59c72 12 112 57 112 123v7h-60c-17 16 -25 38 -25 64c0 49 32 81 80 81c64 0 104 -44 104 -117c0 -111 -83 -203 -211 -217z
" />
    <glyph glyph-name="guillemotright" unicode="&#xbb;" horiz-adv-x="458" 
d="M32 438l187 -153v-90l-187 -152v101l103 96l-103 97v101zM237 438l187 -153v-90l-187 -152v101l103 96l-103 97v101z" />
    <glyph glyph-name="ellipsis" unicode="&#x2026;" horiz-adv-x="1000" 
d="M163 184c53 0 95 -43 95 -96c0 -52 -43 -94 -95 -94c-51 0 -95 41 -95 94c0 54 43 96 95 96zM831 184c53 0 96 -43 96 -96c0 -52 -44 -94 -96 -94c-51 0 -94 41 -94 94c0 54 42 96 94 96zM500 184c53 0 95 -43 95 -96c0 -52 -43 -94 -95 -94c-51 0 -95 41 -95 94
c0 54 43 96 95 96z" />
    <glyph glyph-name="perthousand" unicode="&#x2030;" horiz-adv-x="1414" 
d="M232 683c116 0 190 -80 190 -209c0 -131 -73 -210 -190 -210c-116 0 -189 79 -189 210c0 130 74 209 189 209zM660 671h81l-428 -671h-80zM228 630c-41 0 -63 -53 -63 -156c0 -104 22 -156 63 -156c43 0 66 52 66 156c0 103 -24 156 -66 156zM751 407
c116 0 189 -80 189 -209c0 -130 -73 -210 -189 -210s-189 79 -189 210c0 130 73 209 189 209zM1193 407c116 0 189 -80 189 -209c0 -130 -73 -210 -189 -210s-189 79 -189 210c0 130 73 209 189 209zM747 354c-41 0 -63 -53 -63 -156c0 -104 22 -156 63 -156
c43 0 65 52 65 156c0 103 -23 156 -65 156zM1190 354c-41 0 -64 -53 -64 -156c0 -104 23 -156 64 -156c43 0 65 52 65 156c0 103 -23 156 -65 156z" />
    <glyph glyph-name="questiondown" unicode="&#xbf;" horiz-adv-x="519" 
d="M299 507c51 0 94 -42 94 -94c0 -54 -42 -96 -94 -96c-53 0 -96 43 -96 96c0 52 44 94 96 94zM263 286h77v-124c-100 -32 -151 -85 -151 -158s46 -115 130 -116l51 127c9 1 17 1 24 1c57 0 88 -25 88 -70c0 -71 -78 -129 -211 -129c-161 0 -253 72 -253 185
c0 107 81 180 245 220v64z" />
    <glyph glyph-name="grave" unicode="`" 
d="M67 748h149l98 -190h-86z" />
    <glyph glyph-name="acute" unicode="&#xb4;" 
d="M297 748h149l-161 -190h-86z" />
    <glyph glyph-name="circumflex" unicode="&#x2c6;" 
d="M194 748h112l110 -190h-101l-65 109l-65 -109h-101z" />
    <glyph glyph-name="tilde" unicode="&#x2dc;" 
d="M353 737h66v-14c0 -93 -29 -139 -93 -139c-65 0 -114 45 -146 45c-24 0 -37 -18 -37 -53v-8h-67c0 7 -1 14 -1 20c0 88 32 132 95 132c62 0 111 -43 147 -43c26 0 36 16 36 50v10z" />
    <glyph glyph-name="macron" unicode="&#xaf;" 
d="M69 683h361v-83h-361v83z" />
    <glyph glyph-name="breve" unicode="&#x2d8;" 
d="M88 730l62 -2v-3c0 -61 27 -79 101 -79c73 0 101 19 101 76v6l61 2v-14c0 -108 -47 -149 -162 -149c-116 0 -163 40 -163 149v14z" />
    <glyph glyph-name="dotaccent" unicode="&#x2d9;" 
d="M250 729c41 0 76 -36 76 -81c0 -44 -35 -80 -76 -80c-43 0 -76 36 -76 80c0 45 34 81 76 81z" />
    <glyph glyph-name="dieresis" unicode="&#xa8;" 
d="M136 729c41 0 76 -36 76 -81c0 -44 -35 -80 -76 -80c-43 0 -76 36 -76 80c0 45 34 81 76 81zM364 729c41 0 76 -36 76 -81c0 -44 -35 -80 -76 -80c-43 0 -77 36 -77 80c0 45 35 81 77 81z" />
    <glyph glyph-name="ring" unicode="&#x2da;" 
d="M250 785c67 0 120 -52 120 -119c0 -66 -53 -120 -120 -120s-120 54 -120 120c0 67 53 119 120 119zM249 726c-32 0 -59 -27 -59 -60s27 -60 59 -60c33 0 61 27 61 60s-27 60 -61 60z" />
    <glyph glyph-name="cedilla" unicode="&#xb8;" 
d="M203 0h61v-52h11c56 0 88 -28 88 -80c0 -62 -48 -104 -131 -104c-27 0 -55 5 -85 12v58c30 -5 53 -9 70 -9c32 0 49 13 49 32c0 18 -15 29 -42 29c-7 0 -14 -1 -21 -2v116z" />
    <glyph glyph-name="hungarumlaut" unicode="&#x2dd;" 
d="M177 748h131l-152 -190h-74zM357 748h149l-180 -190h-85z" />
    <glyph glyph-name="ogonek" unicode="&#x2db;" 
d="M239 0h65c-31 -31 -47 -63 -47 -92c0 -32 20 -50 54 -50c7 0 17 1 30 3v-85c-21 -5 -40 -8 -59 -8c-74 0 -112 34 -112 94c0 42 23 90 69 138z" />
    <glyph glyph-name="caron" unicode="&#x2c7;" 
d="M84 747h101l65 -109l65 109h101l-110 -190h-112z" />
    <glyph glyph-name="emdash" unicode="&#x2014;" horiz-adv-x="1000" 
d="M0 181v120h1000v-120h-1000z" />
    <glyph glyph-name="AE" unicode="&#xc6;" horiz-adv-x="963" 
d="M249 671h641v-167h-85l-16 89l-14 11h-178v-222h105l15 14l10 72h70v-246h-70l-10 72l-15 14h-105v-241h209l14 16l18 111h83v-194h-581v58l67 4l16 19v157h-225l-95 -161l10 -12l58 -7v-58h-237v58l66 4l321 532l-13 15l-59 4v58zM423 609l-179 -299h179v299z" />
    <glyph glyph-name="ordfeminine" unicode="&#xaa;" horiz-adv-x="462" 
d="M406 533v-158l6 -6l44 -4v-43h-174l-10 37c-52 -31 -96 -47 -134 -47c-67 0 -113 43 -113 100c0 86 78 110 246 141v17c0 42 -25 65 -73 65h-12v-72h-93c-34 0 -51 9 -51 33c0 42 73 89 199 89c67 0 115 -16 143 -49c21 -25 22 -55 22 -93v-10zM271 500
c-70 -9 -103 -26 -103 -66c0 -27 20 -45 52 -45c14 0 31 4 51 12v99z" />
    <glyph glyph-name="Lslash" unicode="&#x141;" horiz-adv-x="600" 
d="M29 671h341v-58l-67 -4l-17 -15v-147l105 69l37 -52l-142 -91v-304h170l12 17l14 125h99v-211h-552v58l60 4l19 19v183l-71 -49l-29 53l100 69v257l-13 15l-66 4v58z" />
    <glyph glyph-name="Oslash" unicode="&#xd8;" horiz-adv-x="815" 
d="M615 757l56 -32l-55 -94c103 -65 160 -171 160 -292c0 -207 -151 -356 -383 -356c-53 0 -101 9 -146 28l-57 -99l-54 37l54 91c-100 69 -151 170 -151 302c0 102 30 180 98 244c70 66 158 98 266 98c62 0 112 -7 153 -25zM505 572c-29 25 -61 38 -97 38
c-106 0 -178 -104 -178 -283c0 -64 11 -119 32 -167zM548 517l-245 -417c31 -32 66 -47 107 -47c101 0 174 104 174 285c0 67 -12 127 -36 179z" />
    <glyph glyph-name="OE" unicode="&#x152;" horiz-adv-x="1081" 
d="M394 605c-96 0 -161 -100 -161 -275c0 -164 72 -265 163 -265s157 100 157 277c0 167 -67 263 -159 263zM551 603v68h452v-167h-81l-13 78l-21 22h-175v-222h106l15 15l7 71h70v-246h-70l-8 70l-17 20h-103v-245h206l14 16l18 111h84v-194h-484v75
c-59 -63 -122 -90 -208 -90c-87 0 -166 35 -220 98c-53 62 -85 153 -85 254c0 207 127 347 322 347c85 0 147 -26 191 -81z" />
    <glyph glyph-name="ordmasculine" unicode="&#xba;" horiz-adv-x="488" 
d="M250 684c136 0 216 -71 216 -183c0 -113 -80 -184 -222 -184s-220 69 -220 184c0 114 82 183 226 183zM245 633c-49 0 -72 -43 -72 -132s22 -133 72 -133s71 42 71 128c0 93 -21 137 -71 137z" />
    <glyph glyph-name="ae" unicode="&#xe6;" horiz-adv-x="854" 
d="M228 344h-110c-39 0 -57 11 -57 41c0 57 91 123 230 123c70 0 127 -18 169 -53c48 34 97 53 149 53c126 0 210 -89 210 -242v-19h-313v-102c46 -37 98 -58 156 -58c50 0 99 20 154 54v-92c-67 -39 -135 -60 -212 -60c-81 0 -146 24 -217 75c-74 -52 -144 -75 -205 -75
c-89 0 -143 53 -143 140c0 111 97 147 307 192v29c0 65 -36 98 -104 98h-14v-104zM346 105v150c-93 -20 -131 -39 -131 -98c0 -43 26 -70 67 -70c18 0 40 6 64 18zM503 311h146v14c0 77 -23 114 -68 114c-56 0 -78 -38 -78 -122v-6z" />
    <glyph glyph-name="dotlessi" unicode="&#x131;" horiz-adv-x="354" 
d="M204 507h58v-436l13 -13l61 -5v-53h-311v53l59 5l11 13v329h-64v49z" />
    <glyph glyph-name="lslash" unicode="&#x142;" horiz-adv-x="350" 
d="M206 743h51v-282l77 53l35 -51l-112 -77v-312l14 -16l61 -7v-51h-313v51l58 8l13 12v206l-68 -48l-32 51l100 68v287h-69v49z" />
    <glyph glyph-name="oslash" unicode="&#xf8;" horiz-adv-x="650" 
d="M472 581l50 -27l-43 -76c87 -40 135 -121 135 -228c0 -166 -103 -257 -303 -257c-40 0 -74 5 -102 14l-52 -92l-50 33l49 80c-78 50 -118 124 -118 222c0 161 107 257 295 257c34 0 64 -2 90 -9zM382 425c-14 14 -32 19 -57 19c-75 0 -109 -64 -109 -194
c0 -32 3 -65 9 -101zM417 373l-162 -286c18 -21 41 -32 70 -32c80 0 109 64 109 200c0 44 -5 83 -17 118z" />
    <glyph glyph-name="oe" unicode="&#x153;" horiz-adv-x="951" 
d="M314 444c-66 0 -97 -64 -97 -194c0 -131 30 -195 97 -195c66 0 95 62 95 188c0 136 -27 201 -95 201zM737 310v6c0 87 -22 128 -72 128c-54 0 -83 -43 -83 -130v-4h155zM913 247h-335c1 -100 57 -159 141 -159c68 0 129 17 191 53v-92c-74 -38 -150 -56 -228 -56
c-74 0 -132 17 -181 60c-53 -45 -115 -60 -198 -60c-164 0 -264 99 -264 257c0 160 105 257 276 257c83 0 147 -22 190 -62c48 42 110 62 181 62c140 0 227 -89 227 -247v-13z" />
    <glyph glyph-name="germandbls" unicode="&#xdf;" horiz-adv-x="713" 
d="M615 478c-10 1 -20 2 -30 2c-65 0 -100 -28 -100 -74c0 -40 30 -54 80 -83c81 -47 128 -84 128 -161c0 -104 -84 -172 -223 -172c-49 0 -101 6 -155 21v155h72l8 -100c18 -7 32 -10 44 -10c58 0 92 29 92 69c0 55 -51 73 -130 114c-52 27 -81 70 -81 121
c0 63 40 109 113 127c7 40 11 70 11 88c0 61 -34 98 -83 98c-74 0 -111 -71 -111 -213v-460h-231v50l54 8l10 13v357c0 203 120 316 311 316c142 0 228 -76 228 -197c0 -18 -2 -41 -7 -69z" />
    <glyph glyph-name="Aacute" unicode="&#xc1;" horiz-adv-x="701" 
d="M278 676h144l232 -610l61 -8v-58h-324v58l68 5l8 13l-53 149h-213l-50 -148l10 -12l64 -7v-58h-241v58l65 4zM304 513l-79 -221h160zM395 890h153l-161 -156h-85z" />
    <glyph glyph-name="Acircumflex" unicode="&#xc2;" horiz-adv-x="701" 
d="M278 676h144l232 -610l61 -8v-58h-324v58l68 5l8 13l-53 149h-213l-50 -148l10 -12l64 -7v-58h-241v58l65 4zM304 513l-79 -221h160zM296 890h110l110 -156h-98l-68 92l-65 -92h-98z" />
    <glyph glyph-name="Adieresis" unicode="&#xc4;" horiz-adv-x="701" 
d="M278 676h144l232 -610l61 -8v-58h-324v58l68 5l8 13l-53 149h-213l-50 -148l10 -12l64 -7v-58h-241v58l65 4zM304 513l-79 -221h160zM237 898c41 0 76 -36 76 -79s-35 -78 -76 -78c-42 0 -76 35 -76 78c0 44 34 79 76 79zM465 898c41 0 76 -36 76 -79s-35 -78 -76 -78
c-42 0 -77 35 -77 78c0 44 35 79 77 79z" />
    <glyph glyph-name="Agrave" unicode="&#xc0;" horiz-adv-x="701" 
d="M278 676h144l232 -610l61 -8v-58h-324v58l68 5l8 13l-53 149h-213l-50 -148l10 -12l64 -7v-58h-241v58l65 4zM304 513l-79 -221h160zM168 890h154l93 -156h-86z" />
    <glyph glyph-name="Aring" unicode="&#xc5;" horiz-adv-x="701" 
d="M337 963c67 0 120 -53 120 -120c0 -66 -53 -119 -120 -119s-119 53 -119 119c0 67 52 120 119 120zM337 904c-32 0 -59 -27 -59 -60s27 -60 59 -60c33 0 61 27 61 60s-27 60 -61 60zM278 676h144l232 -610l61 -8v-58h-324v58l68 5l8 13l-53 149h-213l-50 -148l10 -12
l64 -7v-58h-241v58l65 4zM304 513l-79 -221h160z" />
    <glyph glyph-name="Atilde" unicode="&#xc3;" horiz-adv-x="701" 
d="M278 676h144l232 -610l61 -8v-58h-324v58l68 5l8 13l-53 149h-213l-50 -148l10 -12l64 -7v-58h-241v58l65 4zM304 513l-79 -221h160zM453 895h65v-12c0 -87 -31 -130 -93 -130c-63 0 -108 43 -142 43c-23 0 -38 -17 -38 -49v-3h-65v16c0 83 30 125 92 125
c61 0 110 -42 145 -42c24 0 36 16 36 48v4z" />
    <glyph glyph-name="Ccedilla" unicode="&#xc7;" horiz-adv-x="683" 
d="M639 24c-71 -25 -147 -38 -230 -38c-79 0 -150 19 -203 51c-105 63 -166 174 -166 299c0 94 38 182 107 248c67 65 159 100 270 100c85 0 159 -14 222 -40v-181h-92l-24 123l-17 16c-17 4 -36 5 -55 5c-127 0 -216 -103 -216 -270c0 -173 91 -275 214 -275
c20 0 39 1 57 4l16 15l26 130h91v-187zM364 0h61v-52h11c56 0 88 -28 88 -80c0 -62 -48 -104 -131 -104c-27 0 -55 5 -85 12v58c30 -5 53 -9 70 -9c32 0 49 13 49 32c0 18 -15 29 -42 29c-7 0 -14 -1 -21 -2v116z" />
    <glyph glyph-name="Eacute" unicode="&#xc9;" horiz-adv-x="653" 
d="M25 0v58l67 4l16 19v513l-16 15l-67 4v58h550v-167h-85l-16 89l-14 11h-178v-222h105l15 14l10 72h71v-246h-71l-10 72l-15 14h-105v-241h209l14 16l18 111h83v-194h-581zM371 890h153l-161 -156h-85z" />
    <glyph glyph-name="Ecircumflex" unicode="&#xca;" horiz-adv-x="653" 
d="M25 0v58l67 4l16 19v513l-16 15l-67 4v58h550v-167h-85l-16 89l-14 11h-178v-222h105l15 14l10 72h71v-246h-71l-10 72l-15 14h-105v-241h209l14 16l18 111h83v-194h-581zM272 890h110l110 -156h-98l-68 92l-65 -92h-98z" />
    <glyph glyph-name="Edieresis" unicode="&#xcb;" horiz-adv-x="653" 
d="M25 0v58l67 4l16 19v513l-16 15l-67 4v58h550v-167h-85l-16 89l-14 11h-178v-222h105l15 14l10 72h71v-246h-71l-10 72l-15 14h-105v-241h209l14 16l18 111h83v-194h-581zM213 898c41 0 76 -36 76 -79s-35 -78 -76 -78c-42 0 -76 35 -76 78c0 44 34 79 76 79zM441 898
c41 0 76 -36 76 -79s-35 -78 -76 -78c-42 0 -77 35 -77 78c0 44 35 79 77 79z" />
    <glyph glyph-name="Egrave" unicode="&#xc8;" horiz-adv-x="653" 
d="M25 0v58l67 4l16 19v513l-16 15l-67 4v58h550v-167h-85l-16 89l-14 11h-178v-222h105l15 14l10 72h71v-246h-71l-10 72l-15 14h-105v-241h209l14 16l18 111h83v-194h-581zM144 890h154l93 -156h-86z" />
    <glyph glyph-name="Eth" unicode="&#xd0;" horiz-adv-x="780" 
d="M25 671h349c237 0 368 -125 368 -335c0 -212 -129 -336 -368 -336h-349v58l67 4l16 19v234h-92v74h92v201l-16 19l-67 4v58zM287 604v-215h122v-74h-122v-248h41c143 0 212 88 212 269c0 180 -69 268 -212 268h-41z" />
    <glyph glyph-name="Iacute" unicode="&#xcd;" horiz-adv-x="410" 
d="M25 0v58l72 4l16 19v513l-16 15l-72 4v58h357v-58l-74 -4l-16 -15v-513l16 -19l74 -4v-58h-357zM249 890h153l-161 -156h-85z" />
    <glyph glyph-name="Icircumflex" unicode="&#xce;" horiz-adv-x="410" 
d="M25 0v58l72 4l16 19v513l-16 15l-72 4v58h357v-58l-74 -4l-16 -15v-513l16 -19l74 -4v-58h-357zM150 890h110l110 -156h-98l-68 92l-65 -92h-98z" />
    <glyph glyph-name="Idieresis" unicode="&#xcf;" horiz-adv-x="410" 
d="M25 0v58l72 4l16 19v513l-16 15l-72 4v58h357v-58l-74 -4l-16 -15v-513l16 -19l74 -4v-58h-357zM91 898c41 0 76 -36 76 -79s-35 -78 -76 -78c-42 0 -76 35 -76 78c0 44 34 79 76 79zM319 898c41 0 76 -36 76 -79s-35 -78 -76 -78c-42 0 -77 35 -77 78c0 44 35 79 77 79z
" />
    <glyph glyph-name="Igrave" unicode="&#xcc;" horiz-adv-x="410" 
d="M25 0v58l72 4l16 19v513l-16 15l-72 4v58h357v-58l-74 -4l-16 -15v-513l16 -19l74 -4v-58h-357zM22 890h154l93 -156h-86z" />
    <glyph glyph-name="Ntilde" unicode="&#xd1;" horiz-adv-x="782" 
d="M23 0v56l61 6l19 19v513l-13 15l-67 7v55h282v-27l287 -445v391l-18 19l-65 7v55h253v-55l-59 -7l-19 -19v-590h-159l-331 510v-429l14 -19l67 -6v-56h-252zM493 895h65v-12c0 -87 -31 -130 -93 -130c-63 0 -108 43 -142 43c-23 0 -38 -17 -38 -49v-3h-65v16
c0 83 30 125 92 125c61 0 110 -42 145 -42c24 0 36 16 36 48v4z" />
    <glyph glyph-name="Oacute" unicode="&#xd3;" horiz-adv-x="815" 
d="M39 342c0 205 146 343 370 343c94 0 174 -26 232 -71c88 -68 135 -165 135 -275c0 -206 -152 -356 -375 -356c-218 0 -362 143 -362 359zM408 610c-101 0 -170 -104 -170 -283c0 -170 75 -274 171 -274s167 103 167 285c0 172 -71 272 -168 272zM452 890h153l-161 -156
h-85z" />
    <glyph glyph-name="Ocircumflex" unicode="&#xd4;" horiz-adv-x="815" 
d="M39 342c0 205 146 343 370 343c94 0 174 -26 232 -71c88 -68 135 -165 135 -275c0 -206 -152 -356 -375 -356c-218 0 -362 143 -362 359zM408 610c-101 0 -170 -104 -170 -283c0 -170 75 -274 171 -274s167 103 167 285c0 172 -71 272 -168 272zM353 890h110l110 -156
h-98l-68 92l-65 -92h-98z" />
    <glyph glyph-name="Odieresis" unicode="&#xd6;" horiz-adv-x="815" 
d="M39 342c0 205 146 343 370 343c94 0 174 -26 232 -71c88 -68 135 -165 135 -275c0 -206 -152 -356 -375 -356c-218 0 -362 143 -362 359zM408 610c-101 0 -170 -104 -170 -283c0 -170 75 -274 171 -274s167 103 167 285c0 172 -71 272 -168 272zM294 898
c41 0 76 -36 76 -79s-35 -78 -76 -78c-42 0 -76 35 -76 78c0 44 34 79 76 79zM522 898c41 0 76 -36 76 -79s-35 -78 -76 -78c-42 0 -77 35 -77 78c0 44 35 79 77 79z" />
    <glyph glyph-name="Ograve" unicode="&#xd2;" horiz-adv-x="815" 
d="M39 342c0 205 146 343 370 343c94 0 174 -26 232 -71c88 -68 135 -165 135 -275c0 -206 -152 -356 -375 -356c-218 0 -362 143 -362 359zM408 610c-101 0 -170 -104 -170 -283c0 -170 75 -274 171 -274s167 103 167 285c0 172 -71 272 -168 272zM225 890h154l93 -156h-86
z" />
    <glyph glyph-name="Otilde" unicode="&#xd5;" horiz-adv-x="815" 
d="M39 342c0 205 146 343 370 343c94 0 174 -26 232 -71c88 -68 135 -165 135 -275c0 -206 -152 -356 -375 -356c-218 0 -362 143 -362 359zM408 610c-101 0 -170 -104 -170 -283c0 -170 75 -274 171 -274s167 103 167 285c0 172 -71 272 -168 272zM510 895h65v-12
c0 -87 -31 -130 -93 -130c-63 0 -108 43 -142 43c-23 0 -38 -17 -38 -49v-3h-65v16c0 83 30 125 92 125c61 0 110 -42 145 -42c24 0 36 16 36 48v4z" />
    <glyph glyph-name="Scaron" unicode="&#x160;" horiz-adv-x="616" 
d="M59 24v185h94l22 -123l14 -15c26 -4 51 -5 76 -5c80 0 126 37 126 91c0 18 -6 36 -18 49c-32 37 -89 48 -156 78c-101 45 -150 103 -150 190c0 123 98 210 260 210c66 0 138 -13 214 -40v-169h-93l-20 111l-12 12c-19 7 -38 9 -60 9c-78 0 -121 -36 -121 -89
c0 -62 56 -79 145 -117c119 -50 182 -90 182 -198c0 -127 -106 -215 -285 -215c-64 0 -136 13 -218 36zM384 733h-109l-110 157h98l67 -92l66 92h98z" />
    <glyph glyph-name="Thorn" unicode="&#xde;" horiz-adv-x="653" 
d="M30 671h350v-58l-73 -4l-16 -19v-39h62c189 0 281 -64 281 -207s-99 -224 -285 -224c-19 0 -38 0 -58 2v-41l15 -19l74 -4v-58h-350v58l64 4l19 19v513l-13 15l-70 4v58zM291 190h12c99 0 143 46 143 151c0 93 -44 142 -130 142c-8 0 -16 0 -25 -1v-292z" />
    <glyph glyph-name="Uacute" unicode="&#xda;" horiz-adv-x="757" 
d="M16 671h338v-58l-65 -4l-12 -15v-337c0 -120 39 -173 151 -173s141 60 141 192v318l-12 15l-71 4v58h252v-58l-64 -4l-13 -15v-331c0 -195 -81 -277 -283 -277c-116 0 -197 34 -244 104c-34 51 -35 109 -35 183v321l-12 15l-71 4v58zM441 890h153l-161 -156h-85z" />
    <glyph glyph-name="Ucircumflex" unicode="&#xdb;" horiz-adv-x="757" 
d="M16 671h338v-58l-65 -4l-12 -15v-337c0 -120 39 -173 151 -173s141 60 141 192v318l-12 15l-71 4v58h252v-58l-64 -4l-13 -15v-331c0 -195 -81 -277 -283 -277c-116 0 -197 34 -244 104c-34 51 -35 109 -35 183v321l-12 15l-71 4v58zM342 890h110l110 -156h-98l-68 92
l-65 -92h-98z" />
    <glyph glyph-name="Udieresis" unicode="&#xdc;" horiz-adv-x="757" 
d="M16 671h338v-58l-65 -4l-12 -15v-337c0 -120 39 -173 151 -173s141 60 141 192v318l-12 15l-71 4v58h252v-58l-64 -4l-13 -15v-331c0 -195 -81 -277 -283 -277c-116 0 -197 34 -244 104c-34 51 -35 109 -35 183v321l-12 15l-71 4v58zM283 898c41 0 76 -36 76 -79
s-35 -78 -76 -78c-42 0 -76 35 -76 78c0 44 34 79 76 79zM511 898c41 0 76 -36 76 -79s-35 -78 -76 -78c-42 0 -77 35 -77 78c0 44 35 79 77 79z" />
    <glyph glyph-name="Ugrave" unicode="&#xd9;" horiz-adv-x="757" 
d="M16 671h338v-58l-65 -4l-12 -15v-337c0 -120 39 -173 151 -173s141 60 141 192v318l-12 15l-71 4v58h252v-58l-64 -4l-13 -15v-331c0 -195 -81 -277 -283 -277c-116 0 -197 34 -244 104c-34 51 -35 109 -35 183v321l-12 15l-71 4v58zM214 890h154l93 -156h-86z" />
    <glyph glyph-name="Yacute" unicode="&#xdd;" horiz-adv-x="671" 
d="M-10 671h324v-57l-58 -5l-9 -14l129 -235l125 226l-8 18l-60 10v57h240v-57l-61 -10l-181 -312v-214l16 -15l71 -5v-58h-350v58l68 5l16 15v177l-194 348l-68 11v57zM402 890h153l-161 -156h-85z" />
    <glyph glyph-name="Ydieresis" unicode="&#x178;" horiz-adv-x="671" 
d="M-10 671h324v-57l-58 -5l-9 -14l129 -235l125 226l-8 18l-60 10v57h240v-57l-61 -10l-181 -312v-214l16 -15l71 -5v-58h-350v58l68 5l16 15v177l-194 348l-68 11v57zM244 898c41 0 76 -36 76 -79s-35 -78 -76 -78c-42 0 -76 35 -76 78c0 44 34 79 76 79zM472 898
c41 0 76 -36 76 -79s-35 -78 -76 -78c-42 0 -77 35 -77 78c0 44 35 79 77 79z" />
    <glyph glyph-name="Zcaron" unicode="&#x17d;" horiz-adv-x="634" 
d="M59 671h517v-69l-337 -533h223l12 14l17 125h92v-208h-539v69l337 535h-198l-19 -13l-17 -119h-88v199zM381 733h-109l-110 157h98l67 -92l66 92h98z" />
    <glyph glyph-name="aacute" unicode="&#xe1;" horiz-adv-x="616" 
d="M367 56c-71 -46 -131 -69 -182 -69c-86 0 -146 57 -146 138c0 61 37 114 94 135c43 16 122 37 234 61v29c0 65 -37 98 -109 98h-16v-104h-119c-42 0 -60 10 -60 41c0 58 96 123 258 123c88 0 151 -23 186 -68c28 -36 29 -78 29 -133v-238l11 -12l55 -6v-51h-221zM367 105
v150c-102 -13 -149 -39 -149 -99c0 -42 30 -70 76 -70c20 0 44 7 73 19zM355 748h149l-161 -190h-86z" />
    <glyph glyph-name="acircumflex" unicode="&#xe2;" horiz-adv-x="616" 
d="M367 56c-71 -46 -131 -69 -182 -69c-86 0 -146 57 -146 138c0 61 37 114 94 135c43 16 122 37 234 61v29c0 65 -37 98 -109 98h-16v-104h-119c-42 0 -60 10 -60 41c0 58 96 123 258 123c88 0 151 -23 186 -68c28 -36 29 -78 29 -133v-238l11 -12l55 -6v-51h-221zM367 105
v150c-102 -13 -149 -39 -149 -99c0 -42 30 -70 76 -70c20 0 44 7 73 19zM252 748h112l110 -190h-101l-65 109l-65 -109h-101z" />
    <glyph glyph-name="adieresis" unicode="&#xe4;" horiz-adv-x="616" 
d="M367 56c-71 -46 -131 -69 -182 -69c-86 0 -146 57 -146 138c0 61 37 114 94 135c43 16 122 37 234 61v29c0 65 -37 98 -109 98h-16v-104h-119c-42 0 -60 10 -60 41c0 58 96 123 258 123c88 0 151 -23 186 -68c28 -36 29 -78 29 -133v-238l11 -12l55 -6v-51h-221zM367 105
v150c-102 -13 -149 -39 -149 -99c0 -42 30 -70 76 -70c20 0 44 7 73 19zM194 729c41 0 76 -36 76 -81c0 -44 -35 -80 -76 -80c-43 0 -76 36 -76 80c0 45 34 81 76 81zM422 729c41 0 76 -36 76 -81c0 -44 -35 -80 -76 -80c-43 0 -77 36 -77 80c0 45 35 81 77 81z" />
    <glyph glyph-name="agrave" unicode="&#xe0;" horiz-adv-x="616" 
d="M367 56c-71 -46 -131 -69 -182 -69c-86 0 -146 57 -146 138c0 61 37 114 94 135c43 16 122 37 234 61v29c0 65 -37 98 -109 98h-16v-104h-119c-42 0 -60 10 -60 41c0 58 96 123 258 123c88 0 151 -23 186 -68c28 -36 29 -78 29 -133v-238l11 -12l55 -6v-51h-221zM367 105
v150c-102 -13 -149 -39 -149 -99c0 -42 30 -70 76 -70c20 0 44 7 73 19zM125 748h149l98 -190h-86z" />
    <glyph glyph-name="aring" unicode="&#xe5;" horiz-adv-x="616" 
d="M313 785c67 0 120 -52 120 -119c0 -66 -53 -120 -120 -120s-120 54 -120 120c0 67 53 119 120 119zM312 726c-32 0 -59 -27 -59 -60s27 -60 59 -60c33 0 61 27 61 60s-27 60 -61 60zM536 296v-227l11 -12l55 -6v-51h-221l-14 56c-71 -46 -131 -69 -182 -69
c-86 0 -146 57 -146 138c0 61 37 114 94 135c43 16 122 37 234 61v29c0 65 -37 98 -109 98h-16v-104h-119c-42 0 -60 10 -60 41c0 58 96 123 258 123c88 0 151 -23 186 -68c28 -36 29 -78 29 -133v-11zM367 255c-102 -13 -149 -39 -149 -99c0 -42 30 -70 76 -70
c20 0 44 7 73 19v150z" />
    <glyph glyph-name="atilde" unicode="&#xe3;" horiz-adv-x="616" 
d="M367 56c-71 -46 -131 -69 -182 -69c-86 0 -146 57 -146 138c0 61 37 114 94 135c43 16 122 37 234 61v29c0 65 -37 98 -109 98h-16v-104h-119c-42 0 -60 10 -60 41c0 58 96 123 258 123c88 0 151 -23 186 -68c28 -36 29 -78 29 -133v-238l11 -12l55 -6v-51h-221zM367 105
v150c-102 -13 -149 -39 -149 -99c0 -42 30 -70 76 -70c20 0 44 7 73 19zM411 737h66v-14c0 -93 -29 -139 -93 -139c-65 0 -114 45 -146 45c-24 0 -37 -18 -37 -53v-8h-67c0 7 -1 14 -1 20c0 88 32 132 95 132c62 0 111 -43 147 -43c26 0 36 16 36 50v10z" />
    <glyph glyph-name="brokenbar" unicode="&#xa6;" 
d="M192 699h117v-370h-117v370zM192 199h117v-370h-117v370z" />
    <glyph glyph-name="ccedilla" unicode="&#xe7;" horiz-adv-x="537" 
d="M522 48c-75 -35 -144 -56 -220 -56c-89 0 -148 19 -203 78c-42 46 -65 106 -65 174c0 157 118 263 292 263c118 0 192 -55 192 -127c0 -49 -38 -82 -92 -82c-29 0 -54 8 -80 24v132c-81 -8 -129 -76 -129 -191c0 -107 62 -177 149 -177c43 0 93 19 156 51v-89zM257 0h61
v-52h11c56 0 88 -28 88 -80c0 -62 -48 -104 -131 -104c-27 0 -55 5 -85 12v58c30 -5 53 -9 70 -9c32 0 49 13 49 32c0 18 -15 29 -42 29c-7 0 -14 -1 -21 -2v116z" />
    <glyph glyph-name="copyright" unicode="&#xa9;" horiz-adv-x="900" 
d="M452 733c103 0 206 -43 280 -117c71 -72 113 -174 113 -280c0 -100 -43 -202 -121 -278c-74 -73 -170 -112 -278 -112c-99 0 -198 42 -272 116c-75 75 -116 172 -116 278c0 104 41 201 115 276c73 74 175 117 279 117zM453 685c-91 0 -178 -37 -242 -102
c-65 -67 -100 -151 -100 -243c0 -94 34 -178 100 -243c67 -66 149 -101 241 -101s176 35 240 101c65 67 101 153 101 243c0 92 -37 181 -100 244c-64 64 -152 101 -240 101zM616 128c-50 -17 -102 -25 -155 -25c-147 0 -250 101 -250 236c0 132 103 235 255 235
c56 0 106 -9 150 -27v-123h-63l-16 83l-12 11c-12 2 -24 4 -37 4c-85 0 -145 -70 -145 -182c0 -118 61 -186 148 -186c10 0 22 1 35 3l11 10l17 87h62v-126z" />
    <glyph glyph-name="degree" unicode="&#xb0;" horiz-adv-x="329" 
d="M165 713c80 0 144 -65 144 -145c0 -78 -64 -144 -145 -144c-80 0 -143 64 -143 144c0 81 64 145 144 145zM255 569c0 50 -40 90 -90 90s-91 -40 -91 -90s41 -91 91 -91c51 0 90 41 90 91z" />
    <glyph glyph-name="divide" unicode="&#xf7;" horiz-adv-x="833" 
d="M417 551c37 0 67 -31 67 -68c0 -36 -29 -66 -67 -66s-67 29 -67 66s31 68 67 68zM709 339v-81h-585v81h585zM417 179c37 0 67 -30 67 -67c0 -36 -29 -66 -67 -66s-67 29 -67 66s31 67 67 67z" />
    <glyph glyph-name="eacute" unicode="&#xe9;" horiz-adv-x="590" 
d="M554 141v-92c-77 -39 -156 -57 -244 -57c-166 0 -272 101 -272 252c0 163 109 266 276 266c153 0 243 -90 243 -250v-13h-343c0 -100 57 -159 144 -159c69 0 132 17 196 53zM379 310v5c0 88 -24 130 -76 130c-57 0 -89 -44 -89 -131c0 -1 1 -2 1 -3c0 0 0 -1 -1 -1h165z
M342 748h149l-161 -190h-86z" />
    <glyph glyph-name="ecircumflex" unicode="&#xea;" horiz-adv-x="590" 
d="M554 141v-92c-77 -39 -156 -57 -244 -57c-166 0 -272 101 -272 252c0 163 109 266 276 266c153 0 243 -90 243 -250v-13h-343c0 -100 57 -159 144 -159c69 0 132 17 196 53zM379 310v5c0 88 -24 130 -76 130c-57 0 -89 -44 -89 -131c0 -1 1 -2 1 -3c0 0 0 -1 -1 -1h165z
M239 748h112l110 -190h-101l-65 109l-65 -109h-101z" />
    <glyph glyph-name="edieresis" unicode="&#xeb;" horiz-adv-x="590" 
d="M554 141v-92c-77 -39 -156 -57 -244 -57c-166 0 -272 101 -272 252c0 163 109 266 276 266c153 0 243 -90 243 -250v-13h-343c0 -100 57 -159 144 -159c69 0 132 17 196 53zM379 310v5c0 88 -24 130 -76 130c-57 0 -89 -44 -89 -131c0 -1 1 -2 1 -3c0 0 0 -1 -1 -1h165z
M181 729c41 0 76 -36 76 -81c0 -44 -35 -80 -76 -80c-43 0 -76 36 -76 80c0 45 34 81 76 81zM409 729c41 0 76 -36 76 -81c0 -44 -35 -80 -76 -80c-43 0 -77 36 -77 80c0 45 35 81 77 81z" />
    <glyph glyph-name="egrave" unicode="&#xe8;" horiz-adv-x="590" 
d="M554 141v-92c-77 -39 -156 -57 -244 -57c-166 0 -272 101 -272 252c0 163 109 266 276 266c153 0 243 -90 243 -250v-13h-343c0 -100 57 -159 144 -159c69 0 132 17 196 53zM379 310v5c0 88 -24 130 -76 130c-57 0 -89 -44 -89 -131c0 -1 1 -2 1 -3c0 0 0 -1 -1 -1h165z
M112 748h149l98 -190h-86z" />
    <glyph glyph-name="eth" unicode="&#xf0;" horiz-adv-x="645" 
d="M365 482c-25 40 -47 69 -64 87l-118 -66l-27 47l108 58l-31 31h-85l-5 43l163 63h35l66 -67l108 57l30 -45l-102 -58c110 -126 165 -245 165 -367c0 -175 -101 -273 -284 -273c-180 0 -287 95 -287 250c0 146 100 244 256 244c20 0 44 -1 72 -4zM397 417
c-22 7 -41 11 -57 11c-73 0 -118 -63 -118 -184c0 -126 31 -187 103 -187c71 0 101 64 101 198c0 64 -6 117 -29 162z" />
    <glyph glyph-name="iacute" unicode="&#xed;" horiz-adv-x="354" 
d="M204 507h58v-436l13 -13l61 -5v-53h-311v53l59 5l11 13v329h-64v49zM224 748h149l-161 -190h-86z" />
    <glyph glyph-name="icircumflex" unicode="&#xee;" horiz-adv-x="354" 
d="M204 507h58v-436l13 -13l61 -5v-53h-311v53l59 5l11 13v329h-64v49zM121 748h112l110 -190h-101l-65 109l-65 -109h-101z" />
    <glyph glyph-name="idieresis" unicode="&#xef;" horiz-adv-x="354" 
d="M204 507h58v-436l13 -13l61 -5v-53h-311v53l59 5l11 13v329h-64v49zM63 729c41 0 76 -36 76 -81c0 -44 -35 -80 -76 -80c-43 0 -76 36 -76 80c0 45 34 81 76 81zM291 729c41 0 76 -36 76 -81c0 -44 -35 -80 -76 -80c-43 0 -77 36 -77 80c0 45 35 81 77 81z" />
    <glyph glyph-name="igrave" unicode="&#xec;" horiz-adv-x="354" 
d="M204 507h58v-436l13 -13l61 -5v-53h-311v53l59 5l11 13v329h-64v49zM-6 748h149l98 -190h-86z" />
    <glyph glyph-name="logicalnot" unicode="&#xac;" horiz-adv-x="833" 
d="M124 423h585v-245h-112v134h-473v111z" />
    <glyph glyph-name="minus" unicode="&#x2212;" horiz-adv-x="833" 
d="M709 340v-83h-585v83h585z" />
    <glyph glyph-name="mu" unicode="&#xb5;" horiz-adv-x="602" 
d="M107 93c-27 -203 -16 -301 -93 -301c-37 0 -62 25 -62 60c0 55 49 160 85 331l53 249h143l-52 -243c-7 -30 -10 -50 -10 -61c0 -36 20 -58 50 -58c42 0 68 37 84 110l54 252h142l-54 -256c-4 -17 -6 -32 -6 -45c0 -29 14 -45 36 -45c17 0 33 9 44 25c17 25 24 51 44 51
c6 0 14 -8 14 -19c0 -14 -11 -56 -36 -93c-27 -41 -62 -60 -108 -60c-58 0 -88 30 -93 95c-24 -64 -65 -95 -122 -95c-65 0 -106 36 -113 103z" />
    <glyph glyph-name="multiply" unicode="&#xd7;" horiz-adv-x="833" 
d="M421 356l225 224l57 -57l-224 -225l224 -224l-57 -58l-225 225l-224 -225l-57 58l224 224l-224 225l57 57z" />
    <glyph glyph-name="ntilde" unicode="&#xf1;" horiz-adv-x="678" 
d="M32 0v53l52 5l11 13v329h-70v49l179 57h58v-64c78 40 138 64 188 64c103 0 145 -59 145 -181v-254l11 -13l54 -5v-53h-280v53l39 5l12 13v213c0 82 -23 117 -106 117c-24 0 -44 -2 -63 -5v-325l13 -13l42 -5v-53h-285zM442 737h66v-14c0 -93 -29 -139 -93 -139
c-65 0 -114 45 -146 45c-24 0 -37 -18 -37 -53v-8h-67c0 7 -1 14 -1 20c0 88 32 132 95 132c62 0 111 -43 147 -43c26 0 36 16 36 50v10z" />
    <glyph glyph-name="oacute" unicode="&#xf3;" horiz-adv-x="650" 
d="M333 507c177 0 281 -99 281 -257c0 -161 -103 -257 -289 -257c-184 0 -287 96 -287 257s107 257 295 257zM327 444c-70 0 -102 -64 -102 -194c0 -131 31 -195 102 -195c70 0 100 63 100 190c0 135 -29 199 -100 199zM372 748h149l-161 -190h-86z" />
    <glyph glyph-name="ocircumflex" unicode="&#xf4;" horiz-adv-x="650" 
d="M333 507c177 0 281 -99 281 -257c0 -161 -103 -257 -289 -257c-184 0 -287 96 -287 257s107 257 295 257zM327 444c-70 0 -102 -64 -102 -194c0 -131 31 -195 102 -195c70 0 100 63 100 190c0 135 -29 199 -100 199zM269 748h112l110 -190h-101l-65 109l-65 -109h-101z
" />
    <glyph glyph-name="odieresis" unicode="&#xf6;" horiz-adv-x="650" 
d="M333 507c177 0 281 -99 281 -257c0 -161 -103 -257 -289 -257c-184 0 -287 96 -287 257s107 257 295 257zM327 444c-70 0 -102 -64 -102 -194c0 -131 31 -195 102 -195c70 0 100 63 100 190c0 135 -29 199 -100 199zM211 729c41 0 76 -36 76 -81c0 -44 -35 -80 -76 -80
c-43 0 -76 36 -76 80c0 45 34 81 76 81zM439 729c41 0 76 -36 76 -81c0 -44 -35 -80 -76 -80c-43 0 -77 36 -77 80c0 45 35 81 77 81z" />
    <glyph glyph-name="ograve" unicode="&#xf2;" horiz-adv-x="650" 
d="M333 507c177 0 281 -99 281 -257c0 -161 -103 -257 -289 -257c-184 0 -287 96 -287 257s107 257 295 257zM327 444c-70 0 -102 -64 -102 -194c0 -131 31 -195 102 -195c70 0 100 63 100 190c0 135 -29 199 -100 199zM142 748h149l98 -190h-86z" />
    <glyph glyph-name="onehalf" unicode="&#xbd;" horiz-adv-x="996" 
d="M212 665h65v-361l7 -9l69 -2v-35h-267v35l73 3l8 11v279l-8 7l-91 -12v36zM671 671h81l-428 -671h-81zM722 75h173l11 54h50v-129h-331v58c133 90 202 157 202 228c0 50 -30 78 -81 78h-14v-91c-20 -8 -37 -13 -52 -13c-35 0 -57 21 -57 50c0 57 60 100 159 100
c102 0 161 -48 161 -120c0 -76 -74 -144 -221 -215z" />
    <glyph glyph-name="onequarter" unicode="&#xbc;" horiz-adv-x="996" 
d="M212 665h65v-361l7 -9l69 -2v-35h-267v35l73 3l8 11v279l-8 7l-91 -12v36zM671 671h81l-428 -671h-81zM816 406h88v-250h74v-56h-74v-115h-101v115h-197v59zM803 308l-130 -152h130v152z" />
    <glyph glyph-name="onesuperior" unicode="&#xb9;" horiz-adv-x="405" 
d="M212 665h65v-361l7 -9l69 -2v-35h-267v35l73 3l8 11v279l-8 7l-91 -12v36z" />
    <glyph glyph-name="otilde" unicode="&#xf5;" horiz-adv-x="650" 
d="M333 507c177 0 281 -99 281 -257c0 -161 -103 -257 -289 -257c-184 0 -287 96 -287 257s107 257 295 257zM327 444c-70 0 -102 -64 -102 -194c0 -131 31 -195 102 -195c70 0 100 63 100 190c0 135 -29 199 -100 199zM428 737h66v-14c0 -93 -29 -139 -93 -139
c-65 0 -114 45 -146 45c-24 0 -37 -18 -37 -53v-8h-67c0 7 -1 14 -1 20c0 88 32 132 95 132c62 0 111 -43 147 -43c26 0 36 16 36 50v10z" />
    <glyph glyph-name="plusminus" unicode="&#xb1;" horiz-adv-x="833" 
d="M458 589v-163h251v-81h-251v-163h-83v163h-251v81h251v163h83zM709 89v-82h-585v82h585z" />
    <glyph glyph-name="registered" unicode="&#xae;" horiz-adv-x="900" 
d="M453 685c-91 0 -178 -37 -242 -102c-65 -67 -100 -151 -100 -243c0 -94 34 -178 100 -243c67 -66 149 -101 241 -101s176 35 240 101c65 67 101 153 101 243c0 92 -37 181 -100 244c-64 64 -152 101 -240 101zM452 733c103 0 206 -43 280 -117c71 -72 113 -174 113 -280
c0 -100 -43 -202 -121 -278c-74 -73 -170 -112 -278 -112c-99 0 -198 42 -272 116c-75 75 -116 172 -116 278c0 104 41 201 115 276c73 74 175 117 279 117zM244 558h238c102 0 154 -38 154 -108c0 -62 -41 -101 -122 -112c78 -14 91 -63 118 -131c14 -36 29 -48 71 -48h5
v-39c-31 -3 -54 -4 -72 -4c-91 0 -112 30 -134 107c-17 60 -32 88 -87 88h-6v-138l10 -12l43 -3v-38h-218v38l40 4l12 11v335l-12 10l-40 3v37zM409 514v-159c5 0 11 -1 16 -1c60 0 92 28 92 83c0 47 -30 77 -79 77h-29z" />
    <glyph glyph-name="scaron" unicode="&#x161;" horiz-adv-x="523" 
d="M462 482v-153h-72l-13 79l-13 14c-26 12 -50 18 -73 18c-49 0 -76 -21 -76 -56c0 -49 56 -57 135 -90c92 -38 136 -71 136 -143c0 -89 -94 -164 -231 -164c-61 0 -133 9 -213 29v167h73l11 -91l11 -13c37 -17 70 -25 101 -25c50 0 79 22 79 58c0 44 -36 52 -94 78
c-112 49 -175 83 -175 162c0 90 84 157 223 157c53 0 117 -9 191 -27zM112 747h101l65 -109l65 109h101l-110 -190h-112z" />
    <glyph glyph-name="thorn" unicode="&#xfe;" horiz-adv-x="667" 
d="M23 -220v56l57 5l11 15v779h-70v49l185 59h50v-303c68 42 121 69 175 69c107 0 195 -98 195 -244c0 -156 -112 -265 -290 -265c-18 0 -45 2 -80 5v-154l13 -12l64 -3v-56h-310zM256 62c10 -1 20 -2 29 -2c102 0 155 65 155 190c0 98 -46 150 -131 150
c-13 0 -30 -2 -53 -5v-333z" />
    <glyph glyph-name="threequarters" unicode="&#xbe;" horiz-adv-x="996" 
d="M229 470c87 -4 134 -42 134 -100c0 -68 -73 -120 -190 -120c-96 0 -151 36 -151 82c0 30 22 51 57 51c10 0 22 -2 36 -6l21 -79c15 -3 27 -5 36 -5c45 0 76 30 76 74c0 43 -35 72 -86 72c-18 0 -33 -1 -47 -5v53c10 -2 18 -2 25 -2c58 0 92 26 92 67c0 44 -31 72 -83 72
c-4 0 -8 -1 -12 -1v-84c-15 -7 -29 -10 -44 -10c-36 0 -58 20 -58 49c0 50 59 89 160 89c94 0 151 -41 151 -101c0 -48 -40 -84 -117 -96zM672 671h81l-428 -671h-81zM817 406h88v-250h74v-56h-74v-115h-101v115h-197v59zM804 308l-130 -152h130v152z" />
    <glyph glyph-name="threesuperior" unicode="&#xb3;" horiz-adv-x="406" 
d="M229 470c87 -4 134 -42 134 -100c0 -68 -73 -120 -190 -120c-96 0 -151 36 -151 82c0 30 22 51 57 51c10 0 22 -2 36 -6l21 -79c15 -3 27 -5 36 -5c45 0 76 30 76 74c0 43 -35 72 -86 72c-18 0 -33 -1 -47 -5v53c10 -2 18 -2 25 -2c58 0 92 26 92 67c0 44 -31 72 -83 72
c-4 0 -8 -1 -12 -1v-84c-15 -7 -29 -10 -44 -10c-36 0 -58 20 -58 49c0 50 59 89 160 89c94 0 151 -41 151 -101c0 -48 -40 -84 -117 -96z" />
    <glyph glyph-name="trademark" unicode="&#x2122;" horiz-adv-x="824" 
d="M109 662h239v-79h-32l-8 47l-8 4h-37v-200l8 -6l26 -2v-27h-136v27l25 2l8 6v200h-38l-7 -4l-7 -47h-33v79zM372 399v27l28 1l4 7v193l-4 5l-28 2v28h126v-14l54 -161l53 161v14h127v-28l-29 -2l-5 -6v-192l5 -7l29 -1v-27h-127v27l24 1l4 7v193l-77 -228h-39l-77 228
v-193l4 -7l26 -1v-27h-98z" />
    <glyph glyph-name="twosuperior" unicode="&#xb2;" horiz-adv-x="406" 
d="M132 333h173l11 54h50v-129h-331v58c133 90 202 157 202 228c0 50 -30 78 -81 78h-14v-91c-20 -8 -37 -13 -52 -13c-35 0 -57 21 -57 50c0 57 60 100 159 100c102 0 161 -48 161 -120c0 -76 -74 -144 -221 -215z" />
    <glyph glyph-name="uacute" unicode="&#xfa;" horiz-adv-x="667" 
d="M191 507h60v-290c0 -90 18 -119 103 -119c15 0 35 1 57 3v299h-63v49l174 58h56v-435l10 -14l59 -4v-54h-236v55c-67 -40 -123 -64 -191 -64c-50 0 -92 23 -116 63c-21 35 -22 72 -22 116v230h-62v49zM381 748h149l-161 -190h-86z" />
    <glyph glyph-name="ucircumflex" unicode="&#xfb;" horiz-adv-x="667" 
d="M191 507h60v-290c0 -90 18 -119 103 -119c15 0 35 1 57 3v299h-63v49l174 58h56v-435l10 -14l59 -4v-54h-236v55c-67 -40 -123 -64 -191 -64c-50 0 -92 23 -116 63c-21 35 -22 72 -22 116v230h-62v49zM278 748h112l110 -190h-101l-65 109l-65 -109h-101z" />
    <glyph glyph-name="udieresis" unicode="&#xfc;" horiz-adv-x="667" 
d="M191 507h60v-290c0 -90 18 -119 103 -119c15 0 35 1 57 3v299h-63v49l174 58h56v-435l10 -14l59 -4v-54h-236v55c-67 -40 -123 -64 -191 -64c-50 0 -92 23 -116 63c-21 35 -22 72 -22 116v230h-62v49zM220 729c41 0 76 -36 76 -81c0 -44 -35 -80 -76 -80
c-43 0 -76 36 -76 80c0 45 34 81 76 81zM448 729c41 0 76 -36 76 -81c0 -44 -35 -80 -76 -80c-43 0 -77 36 -77 80c0 45 35 81 77 81z" />
    <glyph glyph-name="ugrave" unicode="&#xf9;" horiz-adv-x="667" 
d="M191 507h60v-290c0 -90 18 -119 103 -119c15 0 35 1 57 3v299h-63v49l174 58h56v-435l10 -14l59 -4v-54h-236v55c-67 -40 -123 -64 -191 -64c-50 0 -92 23 -116 63c-21 35 -22 72 -22 116v230h-62v49zM151 748h149l98 -190h-86z" />
    <glyph glyph-name="yacute" unicode="&#xfd;" horiz-adv-x="567" 
d="M-8 491h300v-49l-51 -7l-9 -12l103 -259l99 258l-10 13l-54 7v49h213v-49l-55 -10l-194 -453c-53 -124 -145 -202 -228 -202c-55 0 -100 43 -100 94c0 40 29 75 81 88l85 -81c31 19 57 50 79 94l-198 458l-61 12v49zM362 748h149l-161 -190h-86z" />
    <glyph glyph-name="ydieresis" unicode="&#xff;" horiz-adv-x="567" 
d="M-8 491h300v-49l-51 -7l-9 -12l103 -259l99 258l-10 13l-54 7v49h213v-49l-55 -10l-194 -453c-53 -124 -145 -202 -228 -202c-55 0 -100 43 -100 94c0 40 29 75 81 88l85 -81c31 19 57 50 79 94l-198 458l-61 12v49zM201 729c41 0 76 -36 76 -81c0 -44 -35 -80 -76 -80
c-43 0 -76 36 -76 80c0 45 34 81 76 81zM429 729c41 0 76 -36 76 -81c0 -44 -35 -80 -76 -80c-43 0 -77 36 -77 80c0 45 35 81 77 81z" />
    <glyph glyph-name="zcaron" unicode="&#x17e;" horiz-adv-x="556" 
d="M49 0v75l261 354h-149l-12 -14l-11 -87h-83v163h447v-66l-265 -360h166l17 17l11 99h88v-181h-470zM121 747h101l65 -109l65 109h101l-110 -190h-112z" />
  </font>
</defs>
</svg>
